<?xml version="1.0" standalone="no"?>
<!DOCTYPE svg PUBLIC "-//W3C//DTD SVG 1.1//EN" "http://www.w3.org/Graphics/SVG/1.1/DTD/svg11.dtd" >
<svg xmlns="http://www.w3.org/2000/svg" xmlns:xlink="http://www.w3.org/1999/xlink" version="1.1">
<metadata>
Created by FontForge 20170910 at Tue Apr 10 00:55:48 2012
 By Jimmy Wärting
Copyright (c) May 20, 2011, Jovanny Lemonad (lemonad@jovanny.ru), with Reserved Font Name "Nixie" and "Nixie One". This Font Software is licensed under the SIL Open Font License, Version 1.1. This license is available with a FAQ at: http://scripts.sil.org/OFL
</metadata>
<defs>
<font id="NixieOne" horiz-adv-x="572" >
  <font-face 
    font-family="Nixie One"
    font-weight="400"
    font-stretch="normal"
    units-per-em="1000"
    panose-1="2 0 5 3 8 0 0 2 0 4"
    ascent="800"
    descent="-200"
    x-height="500"
    cap-height="700"
    bbox="-146.777 -210 1109 920"
    underline-thickness="50"
    underline-position="-100"
    unicode-range="U+0020-2122"
  />
<missing-glyph horiz-adv-x="500" 
 />
    <glyph glyph-name=".notdef" horiz-adv-x="500" 
 />
    <glyph glyph-name="NULL" horiz-adv-x="0" 
 />
    <glyph glyph-name="CR" horiz-adv-x="333" 
 />
    <glyph glyph-name="space" unicode=" " horiz-adv-x="280" 
 />
    <glyph glyph-name="exclam" unicode="!" horiz-adv-x="268" 
d="M93 3c-17 19 -17 56 0 73c19 19 56 19 73 0c19 -17 19 -54 0 -73c-17 -17 -54 -17 -73 0zM115 185v500c0 10 5 15 15 15s15 -5 15 -15v-500c0 -10 -5 -15 -15 -15s-15 5 -15 15z" />
    <glyph glyph-name="quotedbl" unicode="&#x22;" horiz-adv-x="314" 
d="M77 475v210c0 10 5 15 15 15s15 -5 15 -15v-210c0 -10 -5 -15 -15 -15s-15 5 -15 15zM207 475v210c0 10 5 15 15 15s15 -5 15 -15v-210c0 -10 -5 -15 -15 -15s-15 5 -15 15z" />
    <glyph glyph-name="numbersign" unicode="#" horiz-adv-x="760" 
d="M51 221h146l65 258h-143c-10 0 -15 5 -15 15s5 15 15 15h150l45 179c3 8 7 12 14 12c1 0 3 0 4 -1c10 -2 14 -8 11 -18l-43 -172h239l45 179c3 8 7 12 14 12c1 0 3 0 4 -1c10 -2 14 -8 11 -18l-43 -172h139c10 0 15 -5 15 -15s-5 -15 -15 -15h-147l-64 -258h143
c10 0 15 -5 15 -15s-5 -15 -15 -15h-151l-44 -179c-3 -8 -7 -12 -14 -12c-1 0 -3 0 -4 1c-10 2 -14 8 -11 18l43 172h-240l-44 -179c-3 -8 -7 -12 -14 -12c-1 0 -3 0 -4 1c-10 2 -14 8 -11 18l43 172h-139c-10 0 -15 5 -15 15s5 15 15 15zM292 479l-64 -258h239l65 258h-240
z" />
    <glyph glyph-name="dollar" unicode="$" horiz-adv-x="624" 
d="M296 -65v57c-14 1 -28 4 -41 7c-72 18 -123 54 -149 76c-13 11 -16 1 -16 -10v-50c0 -10 -5 -15 -15 -15s-15 5 -15 15v190c0 10 5 15 15 15s15 -5 15 -15v-75c18 -21 39 -39 64 -55c21 -14 47 -27 77 -38c19 -7 41 -12 65 -15v324l-72 21c-27 9 -51 19 -74 30
c-55 27 -90 69 -90 138c0 91 59 175 230 175h6v55c0 10 5 15 15 15s15 -5 15 -15v-57c13 -2 25 -4 37 -7c70 -18 119 -53 146 -76c13 -11 16 -1 16 10v50c0 10 5 15 15 15s15 -5 15 -15v-190c0 -10 -5 -15 -15 -15s-15 5 -15 15v70c-18 21 -39 40 -63 57
c-21 15 -46 28 -75 40c-19 8 -39 13 -61 16v-305l7 -2c56 -15 112 -30 157 -53c55 -27 90 -69 90 -138c0 -110 -85 -190 -245 -190h-9v-55c0 -10 -5 -15 -15 -15s-15 5 -15 15zM326 20h9c145 0 215 70 215 160c0 52 -36 91 -87 114c-22 10 -47 19 -74 26l-63 18v-318z
M250 394c15 -4 31 -8 46 -13v299h-6c-144 0 -200 -70 -200 -145c0 -52 36 -91 87 -114c22 -10 46 -19 73 -27z" />
    <glyph glyph-name="percent" unicode="%" horiz-adv-x="784" 
d="M84 419c-31 33 -47 73 -47 121s16 88 47 121s71 49 118 49s87 -16 118 -49s47 -73 47 -121s-16 -88 -47 -121s-71 -49 -118 -49s-87 16 -118 49zM106 640c-26 -27 -39 -60 -39 -100s13 -73 39 -100s58 -40 96 -40s70 13 96 40s39 60 39 100s-13 73 -39 100s-58 40 -96 40
s-70 -13 -96 -40zM162 23l433 669c3 5 7 7 12 7c3 0 5 -1 8 -2c9 -7 11 -13 4 -20l-432 -670c-5 -7 -12 -9 -20 -5c-6 3 -9 7 -9 12c0 3 1 6 4 9zM464 39c-31 33 -47 73 -47 121s16 88 47 121s71 49 118 49s87 -16 118 -49s47 -73 47 -121s-16 -88 -47 -121
s-71 -49 -118 -49s-87 16 -118 49zM486 260c-26 -27 -39 -60 -39 -100s13 -73 39 -100s58 -40 96 -40s70 13 96 40s39 60 39 100s-13 73 -39 100s-58 40 -96 40s-70 -13 -96 -40z" />
    <glyph glyph-name="ampersand" unicode="&#x26;" horiz-adv-x="699" 
d="M75 170c0 -47 15 -86 46 -116c31 -29 71 -44 119 -44c87 0 160 37 219 111c4 5 6 9 6 13c0 3 -2 7 -5 10l-174 196c-3 5 -8 7 -15 7c-1 0 -5 -1 -10 -2c-124 -33 -186 -92 -186 -175zM340 710c76 0 139 -40 174 -96c5 -7 2 -14 -7 -19c-7 -5 -14 -3 -21 6
c-39 49 -81 79 -146 79c-92 0 -150 -52 -150 -120c0 -28 9 -75 76 -150l212 -240c6 -7 11 -7 16 0l118 178c6 7 13 8 21 3c9 -5 10 -12 3 -21l-121 -181c-5 -7 -5 -15 2 -22l72 -82c9 -10 17 -15 25 -15h66c10 0 15 -5 15 -15s-5 -15 -15 -15h-80c-9 0 -17 5 -26 15l-75 85
c-7 7 -13 7 -18 0c-63 -80 -144 -120 -241 -120c-57 0 -103 17 -140 52s-55 81 -55 138c0 101 71 170 196 199c10 3 10 10 1 21c-47 56 -82 107 -82 170c0 92 68 150 180 150z" />
    <glyph glyph-name="quotesingle" unicode="'" horiz-adv-x="184" 
d="M77 475v210c0 10 5 15 15 15s15 -5 15 -15v-210c0 -10 -5 -15 -15 -15s-15 5 -15 15z" />
    <glyph glyph-name="parenleft" unicode="(" horiz-adv-x="281" 
d="M76 260v100c0 85 12 163 37 236s56 131 93 176c7 8 15 9 22 4c8 -7 9 -14 3 -20c-72 -87 -125 -227 -125 -396v-100c0 -169 53 -312 125 -396c6 -6 5 -13 -3 -20c-7 -5 -15 -4 -22 4c-37 45 -68 103 -93 176s-37 151 -37 236z" />
    <glyph glyph-name="parenright" unicode=")" horiz-adv-x="281" 
d="M50 -136c72 84 125 227 125 396v100c0 169 -53 309 -125 396c-3 3 -4 5 -4 8c0 4 2 8 7 12c3 2 6 3 9 3l13 -7c37 -45 68 -103 93 -176s37 -151 37 -236v-100c0 -85 -12 -163 -37 -236s-56 -131 -93 -176c-5 -5 -9 -7 -13 -7l-9 3c-5 4 -7 8 -7 12c0 3 1 5 4 8z" />
    <glyph glyph-name="asterisk" unicode="*" horiz-adv-x="448" 
d="M70 449c-2 3 -3 6 -3 9c0 5 3 9 9 12l107 61c7 3 7 10 0 14l-107 61c-6 3 -9 7 -9 12c0 3 1 6 3 9c5 9 12 10 21 5l102 -60c11 -6 16 -3 16 8v105c0 10 5 15 15 15s15 -5 15 -15v-105c0 -11 5 -14 16 -8l102 60c9 5 16 4 21 -5c2 -3 3 -6 3 -9c0 -5 -3 -9 -9 -12
l-107 -61c-7 -4 -7 -11 0 -14l107 -61c6 -3 9 -7 9 -12c0 -3 -1 -6 -3 -9c-5 -9 -12 -10 -21 -5l-102 59c-11 6 -16 3 -16 -8v-100c0 -10 -5 -15 -15 -15s-15 5 -15 15v100c0 11 -5 14 -16 8l-102 -59c-9 -5 -16 -4 -21 5z" />
    <glyph glyph-name="plus" unicode="+" horiz-adv-x="501" 
d="M55 335h160c10 0 15 5 15 15v165c0 10 5 15 15 15s15 -5 15 -15v-165c0 -10 5 -15 15 -15h170c10 0 15 -5 15 -15s-5 -15 -15 -15h-170c-10 0 -15 -5 -15 -15v-165c0 -10 -5 -15 -15 -15s-15 5 -15 15v165c0 10 -5 15 -15 15h-160c-10 0 -15 5 -15 15s5 15 15 15z" />
    <glyph glyph-name="comma" unicode="," horiz-adv-x="242" 
d="M121 90c33 0 50 -20 50 -60v-15c0 -69 -28 -120 -75 -140c-4 -2 -7 -3 -10 -3c-5 0 -9 2 -12 7c-5 9 -3 15 6 19c41 18 61 49 61 92v8c-9 -5 -17 -8 -25 -8c-25 0 -45 19 -45 50s19 50 50 50z" />
    <glyph glyph-name="hyphen" unicode="-" 
d="M91 335h390c10 0 15 -5 15 -15s-5 -15 -15 -15h-390c-10 0 -15 5 -15 15s5 15 15 15z" />
    <glyph glyph-name="period" unicode="." horiz-adv-x="242" 
d="M84 3c-17 19 -17 56 0 73c19 19 56 19 73 0c19 -17 19 -54 0 -73c-17 -17 -54 -17 -73 0z" />
    <glyph glyph-name="slash" unicode="/" horiz-adv-x="518" 
d="M30 23l433 669c3 5 7 7 12 7c3 0 5 -1 8 -2c5 -4 8 -8 8 -12c0 -3 -1 -5 -4 -8l-432 -670c-3 -5 -7 -7 -12 -7c-3 0 -5 1 -8 2c-6 3 -9 7 -9 12c0 3 1 6 4 9z" />
    <glyph glyph-name="zero" unicode="0" horiz-adv-x="654" 
d="M137 85c-50 63 -75 152 -75 265s25 202 75 265c51 63 114 95 190 95s139 -32 189 -95c51 -63 76 -152 76 -265s-25 -202 -76 -265c-50 -63 -113 -95 -189 -95s-139 32 -190 95zM159 593c-45 -57 -67 -138 -67 -243s22 -186 67 -244c45 -57 101 -86 168 -86s122 29 167 86
c45 58 68 139 68 244s-23 186 -68 243c-45 58 -100 87 -167 87s-123 -29 -168 -87z" />
    <glyph glyph-name="one" unicode="1" horiz-adv-x="346" 
d="M31 556c-3 4 -5 8 -5 11c0 4 2 8 7 11l128 107c14 10 23 15 27 15c13 0 20 -5 20 -15v-640c0 -10 5 -15 15 -15h70c10 0 15 -5 15 -15s-5 -15 -15 -15h-200c-10 0 -15 5 -15 15s5 15 15 15h70c10 0 15 5 15 15v605c0 6 -6 6 -14 0l-111 -95c-7 -7 -15 -7 -22 1z" />
    <glyph glyph-name="two" unicode="2" horiz-adv-x="595" 
d="M300 710c71 0 127 -19 168 -57s62 -82 62 -133c0 -43 -15 -81 -46 -116c-30 -35 -67 -65 -110 -90l-128 -70c-43 -23 -80 -50 -111 -79c-30 -29 -45 -61 -45 -95v-25c0 -10 5 -15 15 -15h380c10 0 15 5 15 15v110c0 10 5 15 15 15s15 -5 15 -15v-140
c0 -10 -5 -15 -15 -15h-440c-10 0 -15 5 -15 15v55c0 39 15 75 45 108c31 33 68 62 111 85l128 71c43 23 79 50 110 82c31 31 46 66 46 104c0 43 -18 80 -54 112s-85 48 -146 48c-81 0 -162 -31 -219 -91c-7 -7 -14 -7 -21 0s-7 14 0 21c64 63 143 100 240 100z" />
    <glyph glyph-name="three" unicode="3" horiz-adv-x="601" 
d="M292 710c71 0 127 -18 168 -53c40 -35 60 -79 60 -132c0 -80 -42 -133 -125 -158c93 -16 145 -85 145 -177c0 -121 -92 -200 -240 -200c-97 0 -176 37 -240 100c-7 7 -7 14 0 21c8 8 14 7 21 0c57 -60 138 -91 219 -91c132 0 210 65 210 170c0 100 -69 160 -170 160h-105
c-10 0 -15 5 -15 15s5 15 15 15h85c107 0 170 61 170 145c0 88 -74 155 -198 155c-76 0 -147 -36 -199 -81c-7 -7 -14 -7 -21 0s-7 14 0 21c59 51 128 90 220 90z" />
    <glyph glyph-name="four" unicode="4" horiz-adv-x="578" 
d="M16 177c-1 1 -2 3 -2 5c0 3 1 7 3 11c59 89 96 146 110 172c45 85 70 183 75 295c1 18 1 36 1 55c0 10 5 15 15 15s15 -5 15 -15c0 -119 -14 -212 -49 -293c-17 -41 -33 -75 -50 -104s-39 -63 -68 -103c-5 -10 -1 -15 11 -15h331c10 0 15 5 15 15v286c0 10 5 15 15 15
s15 -5 15 -15v-286c0 -10 5 -15 15 -15h80c10 0 15 -5 15 -15s-5 -15 -15 -15h-80c-10 0 -15 -5 -15 -15v-150c0 -10 -5 -15 -15 -15s-15 5 -15 15v150c0 10 -5 15 -15 15h-380c-6 0 -10 2 -12 7z" />
    <glyph glyph-name="five" unicode="5" 
d="M70 375v310c0 10 5 15 15 15h390c10 0 15 -5 15 -15s-5 -15 -15 -15h-360c-10 0 -15 -5 -15 -15v-235c0 -13 5 -17 15 -12c53 28 109 42 168 42c156 0 242 -85 242 -220c0 -84 -40 -148 -121 -193s-185 -67 -314 -67c-10 0 -15 5 -15 15s5 15 15 15c147 0 269 29 346 100
c39 35 59 79 59 130c0 117 -75 190 -212 190c-70 0 -131 -18 -183 -54c-9 -4 -15 -6 -16 -6c-9 0 -14 5 -14 15z" />
    <glyph glyph-name="six" unicode="6" horiz-adv-x="597" 
d="M123 475c-3 -10 1 -15 13 -15h154c168 0 267 -91 267 -235c0 -70 -21 -126 -64 -169c-43 -44 -100 -66 -171 -66c-79 0 -143 27 -192 81c-49 55 -73 131 -73 229c0 119 37 220 111 304s170 126 289 126c10 0 15 -5 15 -15s-5 -15 -15 -15c-107 0 -196 -39 -266 -118
c-31 -35 -56 -72 -68 -107zM102 415c-8 -27 -15 -96 -15 -115c0 -89 21 -158 64 -207s100 -73 171 -73c128 0 205 81 205 205c0 129 -81 205 -242 205h-163c-9 0 -16 -5 -20 -15z" />
    <glyph glyph-name="seven" unicode="7" horiz-adv-x="466" 
d="M0 545v140c0 10 5 15 15 15h440c6 0 10 -2 12 -6c1 -2 2 -4 2 -6c0 -3 -1 -7 -3 -11l-74 -124c-18 -31 -40 -73 -67 -125c-26 -52 -46 -98 -61 -137c-28 -79 -54 -185 -54 -276c0 -10 -5 -15 -15 -15s-15 5 -15 15c0 173 80 387 241 640c5 10 1 15 -11 15h-365
c-10 0 -15 -5 -15 -15v-110c0 -10 -5 -15 -15 -15s-15 5 -15 15z" />
    <glyph glyph-name="eight" unicode="8" horiz-adv-x="644" 
d="M57 170c4 51 13 82 48 110l30 23c8 5 21 12 39 20c19 9 32 14 39 17l44 16c8 3 8 7 0 10c-43 17 -61 26 -96 47c-46 30 -70 66 -74 127c0 100 86 170 235 170s235 -70 235 -170c0 -39 -16 -72 -35 -95c-9 -11 -23 -21 -40 -32c-33 -21 -52 -30 -95 -47c-8 -3 -8 -7 0 -10
c67 -25 110 -45 131 -60c46 -31 69 -73 69 -126c0 -52 -25 -95 -75 -129c-49 -34 -113 -51 -190 -51s-141 17 -191 51c-49 34 -74 77 -74 129zM87 170c0 -45 22 -81 65 -109c43 -27 100 -41 170 -41s127 14 170 41c43 28 65 64 65 109c0 32 -9 58 -30 79l-20 19
c-11 9 -41 25 -54 30c-6 3 -17 8 -32 13l-31 12l-34 11l-34 11l-34 -11l-34 -11l-32 -12c-15 -5 -25 -10 -32 -13c-12 -5 -42 -21 -53 -30l-20 -19c-21 -21 -30 -47 -30 -79zM117 540c0 -37 19 -69 42 -90c11 -10 27 -20 48 -30s38 -18 53 -23l62 -20l61 20
c15 5 32 13 53 23c21 11 37 21 48 31c23 20 43 52 43 89c0 84 -70 140 -205 140s-205 -56 -205 -140z" />
    <glyph glyph-name="nine" unicode="9" horiz-adv-x="597" 
d="M474 225c4 11 -2 15 -13 15h-154c-168 0 -267 91 -267 235c0 69 21 126 64 169c43 44 100 66 171 66c79 0 143 -27 192 -81c49 -55 73 -131 73 -229c0 -119 -37 -220 -111 -304s-170 -126 -289 -126c-10 0 -15 5 -15 15s5 15 15 15c107 0 196 39 266 118
c31 35 56 72 68 107zM495 285c9 26 15 97 15 115c0 89 -21 158 -64 207s-100 73 -171 73c-128 0 -205 -81 -205 -205c0 -128 81 -205 242 -205h163c9 0 16 5 20 15z" />
    <glyph glyph-name="colon" unicode=":" horiz-adv-x="252" 
d="M89 3c-17 19 -17 56 0 73c19 19 56 19 73 0c19 -17 19 -54 0 -73c-17 -17 -54 -17 -73 0zM89 423c-17 19 -17 56 0 73c19 19 56 19 73 0c19 -17 19 -54 0 -73c-17 -17 -54 -17 -73 0z" />
    <glyph glyph-name="semicolon" unicode=";" horiz-adv-x="252" 
d="M126 90c33 0 50 -20 50 -60v-15c0 -69 -28 -120 -75 -140c-4 -2 -7 -3 -10 -3c-5 0 -9 2 -12 7c-5 9 -3 15 6 19c41 18 61 49 61 92v8c-9 -5 -17 -8 -25 -8c-25 0 -45 19 -45 50s19 50 50 50zM89 423c-17 19 -17 56 0 73c19 19 56 19 73 0c19 -17 19 -54 0 -73
c-17 -17 -54 -17 -73 0z" />
    <glyph glyph-name="less" unicode="&#x3c;" horiz-adv-x="499" 
d="M43 266l376 216c3 3 6 4 9 4c5 0 9 -3 12 -9c2 -3 3 -7 3 -10c0 -5 -3 -8 -8 -11l-343 -198c-9 -6 -9 -12 0 -18l343 -197c5 -4 8 -8 8 -12c0 -3 -1 -6 -3 -9c-3 -6 -7 -9 -12 -9c-3 0 -6 1 -9 4l-375 216c-15 8 -14 25 -1 33z" />
    <glyph glyph-name="equal" unicode="=" horiz-adv-x="580" 
d="M95 235h390c10 0 15 -5 15 -15s-5 -15 -15 -15h-390c-10 0 -15 5 -15 15s5 15 15 15zM95 435h390c10 0 15 -5 15 -15s-5 -15 -15 -15h-390c-10 0 -15 5 -15 15s5 15 15 15z" />
    <glyph glyph-name="greater" unicode="&#x3e;" horiz-adv-x="499" 
d="M59 22c-2 3 -3 6 -3 9c0 4 3 8 8 12l343 197c9 6 9 12 0 18l-343 198c-5 3 -8 6 -8 11c0 3 1 7 3 10c3 6 7 9 12 9c3 0 6 -1 9 -4l376 -216c13 -8 14 -25 -1 -33l-375 -216c-3 -3 -6 -4 -9 -4c-5 0 -9 3 -12 9z" />
    <glyph glyph-name="question" unicode="?" horiz-adv-x="542" 
d="M35 510c0 121 87 200 230 200c71 0 127 -19 168 -57s62 -82 62 -133c0 -71 -34 -123 -75 -155l-64 -47c-43 -31 -76 -74 -76 -133c0 -10 -5 -15 -15 -15s-15 5 -15 15c0 57 24 104 56 131l52 42l51 41c32 25 56 69 56 121c0 43 -18 80 -54 112s-85 48 -146 48
c-124 0 -200 -65 -200 -170c0 -10 -5 -15 -15 -15s-15 5 -15 15zM228 3c-17 19 -17 56 0 73c19 19 56 19 73 0c19 -17 19 -54 0 -73c-17 -17 -54 -17 -73 0z" />
    <glyph glyph-name="at" unicode="@" horiz-adv-x="922" 
d="M466 710c116 0 214 -42 294 -127c81 -85 121 -192 121 -323c0 -82 -14 -148 -41 -197s-63 -73 -107 -73c-53 0 -89 27 -107 80c-4 14 -9 17 -16 10c-53 -60 -110 -90 -169 -90s-110 23 -152 68s-63 109 -63 192s21 147 63 192s93 68 152 68s116 -30 169 -90
c11 -11 16 -3 16 10v55c0 10 5 15 15 15s15 -5 15 -15v-375c0 -59 29 -90 77 -90c35 0 63 22 85 66s33 102 33 174c0 123 -37 224 -111 302c-73 79 -165 118 -274 118s-201 -39 -275 -118c-73 -78 -110 -179 -110 -302s37 -224 110 -302c74 -79 166 -118 275 -118
c112 0 195 30 249 91c7 7 14 7 21 0s7 -14 0 -21c-61 -67 -151 -100 -270 -100c-117 0 -215 42 -295 127s-120 192 -120 323s40 238 120 323s178 127 295 127zM441 20c50 0 96 23 137 70c19 21 35 45 48 70v180c-13 25 -29 49 -48 70c-41 47 -87 70 -137 70
c-52 0 -96 -20 -132 -59c-35 -39 -53 -96 -53 -171s18 -133 53 -172c36 -39 80 -58 132 -58z" />
    <glyph glyph-name="A" unicode="A" horiz-adv-x="724" 
d="M505 289l-137 356c-3 8 -9 8 -12 0l-137 -356c-5 -10 -2 -15 11 -15h264c12 0 16 5 11 15zM599 45l-71 185c-4 9 -12 14 -24 14h-284c-12 0 -20 -5 -24 -14l-71 -185c-5 -10 -2 -15 10 -15h60c10 0 15 -5 15 -15s-5 -15 -15 -15h-190c-10 0 -15 5 -15 15s5 15 15 15h65
c8 0 15 5 20 15l250 650c6 20 38 20 44 0l250 -650c5 -10 11 -15 20 -15h65c10 0 15 -5 15 -15s-5 -15 -15 -15h-190c-10 0 -15 5 -15 15s5 15 15 15h60c11 0 15 5 10 15z" />
    <glyph glyph-name="B" unicode="B" horiz-adv-x="651" 
d="M61 30h70c10 0 15 5 15 15v610c0 10 -5 15 -15 15h-70c-10 0 -15 5 -15 15s5 15 15 15h305c53 0 97 -17 130 -50s50 -75 50 -125c0 -71 -32 -121 -95 -151c96 -19 145 -87 145 -184c0 -117 -69 -190 -190 -190h-345c-10 0 -15 5 -15 15s5 15 15 15zM176 655v-260
c0 -10 5 -15 15 -15h180c42 0 77 14 104 42c27 29 41 63 41 103c0 85 -58 145 -150 145h-175c-10 0 -15 -5 -15 -15zM176 335v-290c0 -10 5 -15 15 -15h215c100 0 160 60 160 160s-60 160 -160 160h-215c-10 0 -15 -5 -15 -15z" />
    <glyph glyph-name="C" unicode="C" horiz-adv-x="695" 
d="M58 350c0 104 29 190 88 257c59 69 134 103 227 103c81 0 154 -28 219 -85c11 -9 16 -5 16 10v50c0 10 5 15 15 15s15 -5 15 -15v-190c0 -10 -5 -15 -15 -15s-15 5 -15 15v70c-18 21 -39 40 -63 57c-55 39 -112 58 -172 58c-82 0 -150 -31 -204 -94s-81 -142 -81 -236
c0 -96 28 -175 84 -237s130 -93 221 -93c92 0 172 31 229 91c7 7 14 7 21 0s7 -14 0 -21c-64 -63 -142 -100 -250 -100c-101 0 -182 34 -243 101c-61 69 -92 155 -92 259z" />
    <glyph glyph-name="D" unicode="D" horiz-adv-x="734" 
d="M61 30h70c10 0 15 5 15 15v610c0 10 -5 15 -15 15h-70c-10 0 -15 5 -15 15s5 15 15 15h280c101 0 182 -33 243 -100s92 -150 92 -250s-31 -183 -92 -250s-142 -100 -243 -100h-280c-10 0 -15 5 -15 15s5 15 15 15zM176 655v-610c0 -10 5 -15 15 -15h150
c91 0 164 30 220 91c57 61 85 137 85 229s-28 168 -85 229c-56 61 -129 91 -220 91h-150c-10 0 -15 -5 -15 -15z" />
    <glyph glyph-name="E" unicode="E" horiz-adv-x="614" 
d="M61 30h70c10 0 15 5 15 15v610c0 10 -5 15 -15 15h-70c-10 0 -15 5 -15 15s5 15 15 15h475c10 0 15 -5 15 -15v-140c0 -10 -5 -15 -15 -15s-15 5 -15 15v110c0 10 -5 15 -15 15h-315c-10 0 -15 -5 -15 -15v-270c0 -10 5 -15 15 -15h225c10 0 15 5 15 15v50
c0 10 5 15 15 15s15 -5 15 -15v-160c0 -10 -5 -15 -15 -15s-15 5 -15 15v50c0 10 -5 15 -15 15h-225c-10 0 -15 -5 -15 -15v-280c0 -10 5 -15 15 -15h325c10 0 15 5 15 15v110c0 10 5 15 15 15s15 -5 15 -15v-140c0 -10 -5 -15 -15 -15h-485c-10 0 -15 5 -15 15s5 15 15 15z
" />
    <glyph glyph-name="F" unicode="F" horiz-adv-x="586" 
d="M61 30h70c10 0 15 5 15 15v610c0 10 -5 15 -15 15h-70c-10 0 -15 5 -15 15s5 15 15 15h475c10 0 15 -5 15 -15v-140c0 -10 -5 -15 -15 -15s-15 5 -15 15v110c0 10 -5 15 -15 15h-315c-10 0 -15 -5 -15 -15v-270c0 -10 5 -15 15 -15h235c10 0 15 5 15 15v50
c0 10 5 15 15 15s15 -5 15 -15v-160c0 -10 -5 -15 -15 -15s-15 5 -15 15v50c0 10 -5 15 -15 15h-235c-10 0 -15 -5 -15 -15v-280c0 -10 5 -15 15 -15h80c10 0 15 -5 15 -15s-5 -15 -15 -15h-210c-10 0 -15 5 -15 15s5 15 15 15z" />
    <glyph glyph-name="G" unicode="G" horiz-adv-x="764" 
d="M58 350c0 103 29 189 88 257c59 69 135 103 227 103c80 0 153 -28 219 -85c11 -9 16 -6 16 10v50c0 10 5 15 15 15s15 -5 15 -15v-190c0 -10 -5 -15 -15 -15s-15 5 -15 15v70c-18 21 -39 40 -63 57c-55 39 -112 58 -172 58c-82 0 -150 -31 -204 -94s-81 -141 -81 -236
s27 -174 82 -237c55 -62 126 -93 213 -93c57 0 112 19 163 57c19 14 40 33 62 58v190c0 10 -5 15 -15 15h-60c-10 0 -15 5 -15 15s5 15 15 15h190c10 0 15 -5 15 -15s-5 -15 -15 -15h-70c-10 0 -15 -5 -15 -15v-310c0 -10 -5 -15 -15 -15s-15 5 -15 15v50c0 16 -5 19 -16 10
c-66 -57 -136 -85 -209 -85c-97 0 -175 34 -235 102s-90 154 -90 258z" />
    <glyph glyph-name="H" unicode="H" horiz-adv-x="782" 
d="M606 385v270c0 10 -5 15 -15 15h-60c-10 0 -15 5 -15 15s5 15 15 15h190c10 0 15 -5 15 -15s-5 -15 -15 -15h-70c-10 0 -15 -5 -15 -15v-610c0 -10 5 -15 15 -15h70c10 0 15 -5 15 -15s-5 -15 -15 -15h-190c-10 0 -15 5 -15 15s5 15 15 15h60c10 0 15 5 15 15v280
c0 10 -5 15 -15 15h-400c-10 0 -15 -5 -15 -15v-280c0 -10 5 -15 15 -15h60c10 0 15 -5 15 -15s-5 -15 -15 -15h-190c-10 0 -15 5 -15 15s5 15 15 15h70c10 0 15 5 15 15v610c0 10 -5 15 -15 15h-70c-10 0 -15 5 -15 15s5 15 15 15h190c10 0 15 -5 15 -15s-5 -15 -15 -15
h-60c-10 0 -15 -5 -15 -15v-270c0 -10 5 -15 15 -15h400c10 0 15 5 15 15z" />
    <glyph glyph-name="I" unicode="I" horiz-adv-x="322" 
d="M61 30h70c10 0 15 5 15 15v610c0 10 -5 15 -15 15h-70c-10 0 -15 5 -15 15s5 15 15 15h200c10 0 15 -5 15 -15s-5 -15 -15 -15h-70c-10 0 -15 -5 -15 -15v-610c0 -10 5 -15 15 -15h70c10 0 15 -5 15 -15s-5 -15 -15 -15h-200c-10 0 -15 5 -15 15s5 15 15 15z" />
    <glyph glyph-name="J" unicode="J" horiz-adv-x="505" 
d="M194 20c88 0 150 60 150 165v470c0 10 -5 15 -15 15h-70c-10 0 -15 5 -15 15s5 15 15 15h200c10 0 15 -5 15 -15s-5 -15 -15 -15h-70c-10 0 -15 -5 -15 -15v-470c0 -124 -72 -195 -180 -195c-76 0 -139 40 -174 96c-5 7 -2 14 7 19c7 5 14 3 21 -6c39 -49 81 -79 146 -79
z" />
    <glyph glyph-name="K" unicode="K" horiz-adv-x="696" 
d="M61 30h70c10 0 15 5 15 15v610c0 10 -5 15 -15 15h-70c-10 0 -15 5 -15 15s5 15 15 15h190c10 0 15 -5 15 -15s-5 -15 -15 -15h-60c-10 0 -15 -5 -15 -15v-370l340 370c8 7 6 15 -5 15h-65c-10 0 -15 5 -15 15s5 15 15 15h205c10 0 15 -5 15 -15s-5 -15 -15 -15h-64
c-7 0 -16 -5 -26 -15l-231 -251l261 -359c9 -10 17 -15 25 -15h65c10 0 15 -5 15 -15s-5 -15 -15 -15h-200c-10 0 -15 5 -15 15s5 15 15 15h65c12 0 14 5 5 15l-243 335l-132 -144v-191c0 -10 5 -15 15 -15h60c10 0 15 -5 15 -15s-5 -15 -15 -15h-190c-10 0 -15 5 -15 15
s5 15 15 15z" />
    <glyph glyph-name="L" unicode="L" horiz-adv-x="578" 
d="M61 30h70c10 0 15 5 15 15v610c0 10 -5 15 -15 15h-70c-10 0 -15 5 -15 15s5 15 15 15h220c10 0 15 -5 15 -15s-5 -15 -15 -15h-90c-10 0 -15 -5 -15 -15v-610c0 -10 5 -15 15 -15h320c10 0 15 5 15 15v110c0 10 5 15 15 15s15 -5 15 -15v-140c0 -10 -5 -15 -15 -15h-480
c-10 0 -15 5 -15 15s5 15 15 15z" />
    <glyph glyph-name="M" unicode="M" horiz-adv-x="972" 
d="M61 30h70c10 0 15 5 15 15v610c0 10 -5 15 -15 15h-70c-10 0 -15 5 -15 15s5 15 15 15h110c12 0 20 -5 25 -15l280 -620c7 -13 13 -13 20 0l280 620c5 10 13 15 25 15h110c10 0 15 -5 15 -15s-5 -15 -15 -15h-70c-10 0 -15 -5 -15 -15v-610c0 -10 5 -15 15 -15h70
c10 0 15 -5 15 -15s-5 -15 -15 -15h-190c-10 0 -15 5 -15 15s5 15 15 15h60c10 0 15 5 15 15v585c0 10 -5 10 -8 5l-280 -620c-11 -20 -33 -20 -44 0l-280 620c-3 5 -8 5 -8 -5v-585c0 -10 5 -15 15 -15h60c10 0 15 -5 15 -15s-5 -15 -15 -15h-190c-10 0 -15 5 -15 15
s5 15 15 15z" />
    <glyph glyph-name="N" unicode="N" horiz-adv-x="785" 
d="M61 30h70c10 0 15 5 15 15v610c0 10 -5 15 -15 15h-70c-10 0 -15 5 -15 15s5 15 15 15h110c11 0 19 -5 25 -15l410 -625c3 -5 10 -6 10 5v590c0 10 -5 15 -15 15h-60c-10 0 -15 5 -15 15s5 15 15 15h190c10 0 15 -5 15 -15s-5 -15 -15 -15h-70c-10 0 -15 -5 -15 -15v-610
c0 -10 5 -15 15 -15h70c10 0 15 -5 15 -15s-5 -15 -15 -15h-110c-11 0 -19 5 -25 15l-410 625c-3 5 -10 6 -10 -5v-590c0 -10 5 -15 15 -15h60c10 0 15 -5 15 -15s-5 -15 -15 -15h-190c-10 0 -15 5 -15 15s5 15 15 15z" />
    <glyph glyph-name="O" unicode="O" horiz-adv-x="786" 
d="M150 91c-61 68 -92 154 -92 259s31 191 92 258c61 68 142 102 243 102s182 -34 243 -102c61 -67 92 -153 92 -258s-31 -191 -92 -259c-61 -67 -142 -101 -243 -101s-182 34 -243 101zM172 587c-56 -62 -84 -141 -84 -237s28 -175 84 -237s130 -93 221 -93s165 31 221 93
s84 141 84 237s-28 175 -84 237s-130 93 -221 93s-165 -31 -221 -93z" />
    <glyph glyph-name="P" unicode="P" horiz-adv-x="633" 
d="M396 280h-205c-10 0 -15 -5 -15 -15v-220c0 -10 5 -15 15 -15h80c10 0 15 -5 15 -15s-5 -15 -15 -15h-210c-10 0 -15 5 -15 15s5 15 15 15h70c10 0 15 5 15 15v610c0 10 -5 15 -15 15h-70c-10 0 -15 5 -15 15s5 15 15 15h335c132 0 200 -73 200 -210s-68 -210 -200 -210z
M191 310h205c113 0 170 60 170 180s-57 180 -170 180h-205c-10 0 -15 -5 -15 -15v-330c0 -10 5 -15 15 -15z" />
    <glyph glyph-name="Q" unicode="Q" horiz-adv-x="787" 
d="M560 -60c23 0 43 8 54 16c9 7 17 6 22 -2c6 -8 5 -15 -3 -21c-15 -11 -46 -23 -73 -23c-47 0 -77 30 -98 86c-21 -4 -44 -6 -69 -6c-101 0 -182 34 -243 101c-61 69 -92 155 -92 259c0 105 31 191 92 258c61 68 142 102 243 102s182 -34 243 -102c61 -67 92 -153 92 -258
c0 -86 -21 -160 -63 -223c-41 -62 -99 -103 -172 -123c13 -39 36 -64 67 -64zM698 350c0 96 -28 175 -84 237s-130 93 -221 93s-165 -31 -221 -93s-84 -141 -84 -237s28 -175 84 -237c35 -39 77 -66 126 -80c19 56 48 86 95 86s73 -31 92 -87c50 14 93 41 129 81
c56 62 84 141 84 237zM329 25c20 -3 41 -5 64 -5c21 0 41 1 61 5c-12 43 -32 64 -61 64c-31 0 -52 -21 -64 -64z" />
    <glyph glyph-name="R" unicode="R" horiz-adv-x="688" 
d="M191 350h205c109 0 170 59 170 160s-61 160 -170 160h-205c-10 0 -15 -5 -15 -15v-290c0 -10 5 -15 15 -15zM176 305v-260c0 -10 5 -15 15 -15h60c10 0 15 -5 15 -15s-5 -15 -15 -15h-190c-10 0 -15 5 -15 15s5 15 15 15h70c10 0 15 5 15 15v610c0 10 -5 15 -15 15h-70
c-10 0 -15 5 -15 15s5 15 15 15h335c129 0 200 -70 200 -190s-71 -190 -200 -190h-5c-11 0 -17 -7 -10 -15l190 -260c9 -10 17 -15 25 -15h65c10 0 15 -5 15 -15s-5 -15 -15 -15h-200c-10 0 -15 5 -15 15s5 15 15 15h65c12 0 14 5 5 15l-200 275h-140c-10 0 -15 -5 -15 -15z
" />
    <glyph glyph-name="S" unicode="S" horiz-adv-x="645" 
d="M345 20c145 0 215 70 215 160c0 52 -36 91 -87 114c-88 40 -223 58 -313 103c-55 27 -90 69 -90 138c0 91 59 175 230 175c105 0 184 -55 219 -85c13 -11 16 -1 16 10v50c0 10 5 15 15 15s15 -5 15 -15v-190c0 -10 -5 -15 -15 -15s-15 5 -15 15v70c-18 21 -39 40 -63 57
c-41 29 -100 58 -172 58c-144 0 -200 -70 -200 -145c0 -52 36 -91 87 -114c88 -40 223 -58 313 -103c55 -27 90 -69 90 -138c0 -110 -85 -190 -245 -190c-115 0 -195 56 -229 85c-13 11 -16 1 -16 -10v-50c0 -10 -5 -15 -15 -15s-15 5 -15 15v190c0 10 5 15 15 15
s15 -5 15 -15v-75c18 -21 39 -39 64 -55c43 -28 102 -55 181 -55z" />
    <glyph glyph-name="T" unicode="T" horiz-adv-x="618" 
d="M26 540v145c0 10 5 15 15 15h540c10 0 15 -5 15 -15v-145c0 -10 -5 -15 -15 -15s-15 5 -15 15v115c0 10 -5 15 -15 15h-210c-10 0 -15 -5 -15 -15v-610c0 -10 5 -15 15 -15h70c10 0 15 -5 15 -15s-5 -15 -15 -15h-200c-10 0 -15 5 -15 15s5 15 15 15h70c10 0 15 5 15 15
v610c0 10 -5 15 -15 15h-210c-10 0 -15 -5 -15 -15v-115c0 -10 -5 -15 -15 -15s-15 5 -15 15z" />
    <glyph glyph-name="U" unicode="U" horiz-adv-x="776" 
d="M43 700h190c10 0 15 -5 15 -15s-5 -15 -15 -15h-60c-10 0 -15 -5 -15 -15v-405c0 -69 22 -125 65 -167s98 -63 165 -63s122 21 165 63s65 98 65 167v405c0 10 -5 15 -15 15h-60c-10 0 -15 5 -15 15s5 15 15 15h190c10 0 15 -5 15 -15s-5 -15 -15 -15h-70
c-10 0 -15 -5 -15 -15v-405c0 -77 -25 -139 -74 -188c-49 -48 -111 -72 -186 -72s-138 24 -187 72c-49 49 -73 111 -73 188v405c0 10 -5 15 -15 15h-70c-10 0 -15 5 -15 15s5 15 15 15z" />
    <glyph glyph-name="V" unicode="V" horiz-adv-x="724" 
d="M5 700h190c10 0 15 -5 15 -15s-5 -15 -15 -15h-60c-11 0 -15 -5 -10 -15l231 -600c3 -8 9 -8 12 0l231 600c5 10 1 15 -10 15h-60c-10 0 -15 5 -15 15s5 15 15 15h190c10 0 15 -5 15 -15s-5 -15 -15 -15h-65c-8 0 -15 -5 -20 -15l-250 -650c-5 -20 -39 -20 -44 0
l-250 650c-5 10 -12 15 -20 15h-65c-10 0 -15 5 -15 15s5 15 15 15z" />
    <glyph glyph-name="W" unicode="W" horiz-adv-x="1013" 
d="M5 700h190c10 0 15 -5 15 -15s-5 -15 -15 -15h-60c-11 0 -15 -5 -10 -15l179 -578c3 -8 9 -8 12 0l171 608c7 20 33 20 40 0l170 -608c3 -8 9 -8 12 0l179 578c5 10 2 15 -10 15h-60c-10 0 -15 5 -15 15s5 15 15 15h190c10 0 15 -5 15 -15s-5 -15 -15 -15h-65
c-10 0 -17 -5 -20 -15l-201 -650c-5 -20 -33 -20 -38 0l-171 610c-3 8 -11 8 -14 0l-170 -610c-7 -20 -31 -20 -38 0l-201 650c-3 10 -9 15 -20 15h-65c-10 0 -15 5 -15 15s5 15 15 15z" />
    <glyph glyph-name="X" unicode="X" horiz-adv-x="661" 
d="M22 30h60c11 0 19 5 25 15l200 303c4 6 4 12 0 18l-190 289c-6 10 -14 15 -25 15h-60c-10 0 -15 5 -15 15s5 15 15 15h190c10 0 15 -5 15 -15s-5 -15 -15 -15h-60c-11 0 -15 -7 -10 -15l171 -260c5 -7 9 -7 14 0l172 260c5 8 1 15 -10 15h-60c-10 0 -15 5 -15 15
s5 15 15 15h190c10 0 15 -5 15 -15s-5 -15 -15 -15h-60c-11 0 -19 -5 -25 -15l-190 -289c-4 -6 -4 -12 0 -18l200 -303c6 -10 14 -15 25 -15h60c10 0 15 -5 15 -15s-5 -15 -15 -15h-190c-10 0 -15 5 -15 15s5 15 15 15h60c11 0 15 7 10 15l-182 275c-5 7 -9 7 -14 0
l-181 -275c-5 -8 -1 -15 10 -15h60c10 0 15 -5 15 -15s-5 -15 -15 -15h-190c-10 0 -15 5 -15 15s5 15 15 15z" />
    <glyph glyph-name="Y" unicode="Y" horiz-adv-x="627" 
d="M5 700h190c10 0 15 -5 15 -15s-5 -15 -15 -15h-60c-11 0 -15 -7 -10 -15l181 -316c5 -7 9 -7 14 0l182 316c5 8 1 15 -10 15h-60c-10 0 -15 5 -15 15s5 15 15 15h190c10 0 15 -5 15 -15s-5 -15 -15 -15h-60c-11 0 -19 -5 -25 -15l-208 -361v-249c0 -10 5 -15 15 -15h70
c10 0 15 -5 15 -15s-5 -15 -15 -15h-200c-10 0 -15 5 -15 15s5 15 15 15h70c10 0 15 5 15 15v247l-209 363c-6 10 -14 15 -25 15h-60c-10 0 -15 5 -15 15s5 15 15 15z" />
    <glyph glyph-name="Z" unicode="Z" horiz-adv-x="615" 
d="M50 17c0 3 4 10 12 23l449 614c8 8 4 16 -11 16h-400c-10 0 -15 -5 -15 -15v-110c0 -10 -5 -15 -15 -15s-15 5 -15 15v140c0 10 5 15 15 15h480c10 0 15 -6 15 -17c0 -3 -4 -10 -12 -23l-449 -614c-8 -8 -4 -16 11 -16h400c10 0 15 5 15 15v110c0 10 5 15 15 15
s15 -5 15 -15v-140c0 -10 -5 -15 -15 -15h-480c-10 0 -15 6 -15 17z" />
    <glyph glyph-name="bracketleft" unicode="[" horiz-adv-x="290" 
d="M107 -145v910c0 10 5 15 15 15h130c10 0 15 -5 15 -15s-5 -15 -15 -15h-100c-10 0 -15 -5 -15 -15v-850c0 -10 5 -15 15 -15h100c10 0 15 -5 15 -15s-5 -15 -15 -15h-130c-10 0 -15 5 -15 15z" />
    <glyph glyph-name="backslash" unicode="\" horiz-adv-x="519" 
d="M463 7l-432 670c-3 3 -4 5 -4 8c0 4 3 8 8 12c3 1 5 2 8 2c5 0 9 -2 12 -7l433 -669c3 -3 4 -6 4 -9c0 -5 -3 -9 -9 -12c-3 -1 -5 -2 -8 -2c-5 0 -9 2 -12 7z" />
    <glyph glyph-name="bracketright" unicode="]" horiz-adv-x="290" 
d="M38 -130h100c10 0 15 5 15 15v850c0 10 -5 15 -15 15h-100c-10 0 -15 5 -15 15s5 15 15 15h130c10 0 15 -5 15 -15v-910c0 -10 -5 -15 -15 -15h-130c-10 0 -15 5 -15 15s5 15 15 15z" />
    <glyph glyph-name="asciicircum" unicode="^" horiz-adv-x="467" 
d="M24 466l193 263c4 7 10 10 17 11c7 0 12 -4 16 -11l193 -263c2 -3 3 -5 3 -8c0 -5 -2 -9 -7 -12c-3 -3 -7 -4 -10 -4c-5 0 -9 3 -12 8l-174 237c-5 8 -14 8 -19 0l-174 -237c-3 -5 -7 -8 -12 -8c-3 0 -7 1 -10 4c-5 3 -7 7 -7 12c0 3 1 5 3 8z" />
    <glyph glyph-name="underscore" unicode="_" horiz-adv-x="708" 
d="M204 -50h300c10 0 15 -5 15 -15s-5 -15 -15 -15h-300c-10 0 -15 5 -15 15s5 15 15 15z" />
    <glyph glyph-name="grave" unicode="`" horiz-adv-x="242" 
d="M154 567l-90 128c-3 3 -4 7 -4 10c0 4 3 7 8 10c3 3 7 5 10 5c4 0 8 -3 11 -9l89 -127c3 -3 4 -7 4 -10s-2 -7 -7 -10c-3 -2 -7 -3 -10 -3c-4 0 -8 2 -11 6z" />
    <glyph glyph-name="a" unicode="a" 
d="M421 155v90c0 10 -5 15 -15 15h-165c-116 0 -170 -51 -170 -120c0 -71 53 -120 150 -120c55 0 104 22 149 67c19 19 36 41 51 68zM265 510c56 0 101 -16 135 -48c34 -31 51 -70 51 -117v-300c0 -10 5 -15 15 -15h70c10 0 15 -5 15 -15s-5 -15 -15 -15h-100
c-10 0 -15 5 -15 15v56c0 13 -5 21 -16 10c-18 -23 -42 -43 -73 -62c-33 -19 -70 -29 -111 -29c-117 0 -180 65 -180 150c0 83 75 150 200 150h165c10 0 15 5 15 15v40c0 76 -64 135 -156 135c-80 0 -135 -30 -162 -51c-9 -7 -16 -6 -21 2c-6 8 -5 15 2 20
c36 29 96 59 181 59z" />
    <glyph glyph-name="b" unicode="b" horiz-adv-x="599" 
d="M126 455v-300c15 -27 32 -49 51 -68c45 -45 94 -67 149 -67c113 0 190 83 190 235c0 137 -88 215 -240 215h-135c-10 0 -15 -5 -15 -15zM126 685v-170c0 -10 5 -15 15 -15h135c170 0 270 -93 270 -245c0 -168 -87 -265 -220 -265c-41 0 -79 10 -112 29
c-31 20 -55 41 -72 62c-11 11 -16 3 -16 -10v-56c0 -10 -5 -15 -15 -15s-15 5 -15 15v640c0 10 -5 15 -15 15h-70c-10 0 -15 5 -15 15s5 15 15 15h100c10 0 15 -5 15 -15z" />
    <glyph glyph-name="c" unicode="c" horiz-adv-x="549" 
d="M286 -10c-71 0 -127 24 -170 72c-43 49 -65 111 -65 188s21 139 63 187c42 49 94 73 157 73c66 0 124 -25 174 -75c12 -11 16 -3 16 10v40c0 10 5 15 15 15s15 -5 15 -15v-160c0 -10 -5 -15 -15 -15s-15 5 -15 15v50c-16 21 -33 38 -50 52c-43 35 -90 53 -140 53
c-54 0 -99 -21 -136 -64c-36 -43 -54 -99 -54 -166c0 -70 19 -126 57 -168c38 -41 87 -62 148 -62c104 0 153 45 183 72c9 8 15 3 22 -4c7 -8 6 -15 -1 -21c-35 -32 -95 -77 -204 -77z" />
    <glyph glyph-name="d" unicode="d" horiz-adv-x="631" 
d="M470 515v140c0 10 -5 15 -15 15h-80c-10 0 -15 5 -15 15s5 15 15 15h110c10 0 15 -5 15 -15v-640c0 -10 5 -15 15 -15h70c10 0 15 -5 15 -15s-5 -15 -15 -15h-100c-10 0 -15 5 -15 15v56c0 13 -5 21 -16 10c-17 -22 -41 -43 -73 -62c-33 -19 -70 -29 -111 -29
c-133 0 -220 97 -220 265c0 152 100 245 270 245h135c10 0 15 5 15 15zM470 155v300c0 10 -5 15 -15 15h-135c-152 0 -240 -78 -240 -215c0 -152 77 -235 190 -235c55 0 104 22 149 67c19 19 36 41 51 68z" />
    <glyph glyph-name="e" unicode="e" horiz-adv-x="567" 
d="M287 20c104 0 153 45 183 72c9 8 15 3 22 -4c7 -8 6 -15 -1 -21c-35 -32 -95 -77 -204 -77c-71 0 -127 24 -170 72c-43 49 -65 112 -65 188s22 139 65 188c43 48 99 72 170 72c69 0 125 -22 169 -66s66 -97 66 -159v-15c0 -20 -10 -30 -30 -30h-394c-11 0 -16 -5 -15 -15
c4 -58 23 -106 56 -143c38 -41 87 -62 148 -62zM84 285c-1 -10 3 -15 14 -15h379c10 0 15 5 15 15c0 53 -20 99 -59 137c-39 39 -87 58 -146 58c-61 0 -110 -21 -148 -64c-31 -35 -50 -79 -55 -131z" />
    <glyph glyph-name="f" unicode="f" horiz-adv-x="414" 
d="M296 710c65 0 108 -36 129 -57c7 -7 10 -15 2 -23c-7 -7 -14 -7 -21 0c-23 21 -59 50 -110 50c-84 0 -130 -54 -130 -155v-10c0 -10 5 -15 15 -15h160c10 0 15 -5 15 -15s-5 -15 -15 -15h-160c-10 0 -15 -5 -15 -15v-410c0 -10 5 -15 15 -15h80c10 0 15 -5 15 -15
s-5 -15 -15 -15h-210c-10 0 -15 5 -15 15s5 15 15 15h70c10 0 15 5 15 15v410c0 10 -5 15 -15 15h-70c-10 0 -15 5 -15 15s5 15 15 15h70c10 0 15 5 15 15v10c0 120 56 185 160 185z" />
    <glyph glyph-name="g" unicode="g" horiz-adv-x="605" 
d="M285 70c-165 0 -230 -50 -230 -125c0 -70 55 -125 230 -125s230 55 230 125s-55 125 -230 125zM285 190c135 0 190 54 190 145c0 89 -55 145 -190 145s-190 -56 -190 -145c0 -91 55 -145 190 -145zM100 63c9 4 9 13 0 16c-25 9 -50 31 -50 60c0 36 29 54 53 65
c9 5 9 12 0 21c-21 24 -38 57 -38 110c0 105 75 175 220 175c62 0 112 -12 150 -37c6 6 13 11 21 16c15 8 34 16 59 16h65c10 0 15 -5 15 -15v-115c0 -10 -5 -15 -15 -15s-15 5 -15 15v90c0 10 -5 15 -15 15h-35c-15 0 -26 -4 -34 -7l-13 -6c-8 -8 -8 -15 -1 -22
c21 -25 38 -65 38 -110c0 -105 -75 -175 -220 -175c-63 0 -112 13 -141 32c-39 -11 -64 -22 -64 -53c0 -24 24 -39 80 -39h125c189 0 260 -64 260 -155s-71 -155 -260 -155s-260 64 -260 155c0 45 27 94 75 118z" />
    <glyph glyph-name="h" unicode="h" horiz-adv-x="651" 
d="M34 30h70c10 0 15 5 15 15v610c0 10 -5 15 -15 15h-70c-10 0 -15 5 -15 15s5 15 15 15h100c10 0 15 -5 15 -15v-256c0 -13 5 -21 16 -10c54 61 114 91 179 91c123 0 195 -71 195 -200v-265c0 -10 5 -15 15 -15h70c10 0 15 -5 15 -15s-5 -15 -15 -15h-190
c-10 0 -15 5 -15 15s5 15 15 15h60c10 0 15 5 15 15v265c0 113 -62 170 -165 170c-50 0 -98 -23 -143 -68c-19 -20 -37 -42 -52 -67v-300c0 -10 5 -15 15 -15h60c10 0 15 -5 15 -15s-5 -15 -15 -15h-190c-10 0 -15 5 -15 15s5 15 15 15z" />
    <glyph glyph-name="i" unicode="i" horiz-adv-x="286" 
d="M52 30h70c10 0 15 5 15 15v410c0 10 -5 15 -15 15h-70c-10 0 -15 5 -15 15s5 15 15 15h100c10 0 15 -5 15 -15v-440c0 -10 5 -15 15 -15h70c10 0 15 -5 15 -15s-5 -15 -15 -15h-200c-10 0 -15 5 -15 15s5 15 15 15zM118 591c-15 16 -15 42 0 57c16 16 42 16 57 0
c16 -15 16 -41 0 -57c-15 -15 -41 -15 -57 0z" />
    <glyph glyph-name="j" unicode="j" horiz-adv-x="245" 
d="M100 591c-15 16 -15 42 0 57c16 16 42 16 57 0c16 -15 16 -41 0 -57c-15 -15 -41 -15 -57 0zM0 -180c75 0 119 49 119 145v490c0 10 -5 15 -15 15h-70c-10 0 -15 5 -15 15s5 15 15 15h100c10 0 15 -5 15 -15v-520c0 -113 -56 -175 -149 -175c-64 0 -110 36 -129 57
c-7 7 -10 15 -2 23c7 7 14 7 21 0c23 -21 59 -50 110 -50z" />
    <glyph glyph-name="k" unicode="k" horiz-adv-x="581" 
d="M34 30h70c10 0 15 5 15 15v610c0 10 -5 15 -15 15h-70c-10 0 -15 5 -15 15s5 15 15 15h100c10 0 15 -5 15 -15v-492l240 262c8 7 6 15 -5 15h-56c-10 0 -15 5 -15 15s5 15 15 15h196c10 0 15 -5 15 -15s-5 -15 -15 -15h-64c-7 0 -16 -5 -26 -15l-150 -163l180 -247
c9 -10 17 -15 25 -15h65c10 0 15 -5 15 -15s-5 -15 -15 -15h-190c-10 0 -15 5 -15 15s5 15 15 15h55c12 0 14 5 5 15l-162 223l-113 -124v-99c0 -10 5 -15 15 -15h60c10 0 15 -5 15 -15s-5 -15 -15 -15h-190c-10 0 -15 5 -15 15s5 15 15 15z" />
    <glyph glyph-name="l" unicode="l" horiz-adv-x="268" 
d="M34 30h70c10 0 15 5 15 15v610c0 10 -5 15 -15 15h-70c-10 0 -15 5 -15 15s5 15 15 15h100c10 0 15 -5 15 -15v-640c0 -10 5 -15 15 -15h70c10 0 15 -5 15 -15s-5 -15 -15 -15h-200c-10 0 -15 5 -15 15s5 15 15 15z" />
    <glyph glyph-name="m" unicode="m" horiz-adv-x="959" 
d="M51 30h70c10 0 15 5 15 15v410c0 10 -5 15 -15 15h-70c-10 0 -15 5 -15 15s5 15 15 15h100c10 0 15 -5 15 -15v-56c0 -15 4 -22 16 -10c52 61 103 91 154 91c77 0 138 -45 161 -128c13 23 29 45 48 64c41 43 85 64 131 64c100 0 170 -73 170 -200v-265
c0 -10 5 -15 15 -15h70c10 0 15 -5 15 -15s-5 -15 -15 -15h-190c-10 0 -15 5 -15 15s5 15 15 15h60c10 0 15 5 15 15v265c0 109 -60 170 -140 170c-41 0 -83 -23 -124 -70c-19 -21 -35 -45 -48 -70c1 -15 2 -25 2 -30v-265c0 -10 5 -15 15 -15h60c10 0 15 -5 15 -15
s-5 -15 -15 -15h-180c-10 0 -15 5 -15 15s5 15 15 15h60c10 0 15 5 15 15v265c0 109 -60 170 -140 170c-41 0 -81 -23 -121 -68c-17 -19 -34 -42 -49 -67v-300c0 -10 5 -15 15 -15h60c10 0 15 -5 15 -15s-5 -15 -15 -15h-190c-10 0 -15 5 -15 15s5 15 15 15z" />
    <glyph glyph-name="n" unicode="n" horiz-adv-x="668" 
d="M51 30h70c10 0 15 5 15 15v410c0 10 -5 15 -15 15h-70c-10 0 -15 5 -15 15s5 15 15 15h100c10 0 15 -5 15 -15v-56c0 -13 5 -21 16 -10c54 61 114 91 179 91c123 0 195 -71 195 -200v-265c0 -10 5 -15 15 -15h70c10 0 15 -5 15 -15s-5 -15 -15 -15h-190
c-10 0 -15 5 -15 15s5 15 15 15h60c10 0 15 5 15 15v265c0 113 -62 170 -165 170c-50 0 -98 -23 -143 -68c-20 -20 -37 -42 -52 -67v-300c0 -10 5 -15 15 -15h60c10 0 15 -5 15 -15s-5 -15 -15 -15h-190c-10 0 -15 5 -15 15s5 15 15 15z" />
    <glyph glyph-name="o" unicode="o" horiz-adv-x="592" 
d="M119 62c-45 48 -68 111 -68 188s23 140 68 188s104 72 177 72s132 -24 177 -72s68 -111 68 -188s-23 -140 -68 -188s-104 -72 -177 -72s-132 24 -177 72zM81 250c0 -70 19 -126 58 -168c39 -41 92 -62 157 -62s117 21 156 62c39 42 59 98 59 168c0 69 -20 125 -59 167
s-91 63 -156 63s-117 -21 -156 -63s-59 -98 -59 -167z" />
    <glyph glyph-name="p" unicode="p" horiz-adv-x="622" 
d="M164 30h135c153 0 240 78 240 215c0 153 -77 235 -190 235c-54 0 -104 -23 -149 -68c-21 -21 -38 -44 -51 -67v-300c0 -10 5 -15 15 -15zM299 0h-135c-10 0 -15 -5 -15 -15v-140c0 -10 5 -15 15 -15h80c10 0 15 -5 15 -15s-5 -15 -15 -15h-210c-10 0 -15 5 -15 15
s5 15 15 15h70c10 0 15 5 15 15v610c0 10 -5 15 -15 15h-70c-10 0 -15 5 -15 15s5 15 15 15h100c10 0 15 -5 15 -15v-56c0 -13 5 -21 16 -10c17 21 41 42 72 61c33 20 70 30 112 30c67 0 120 -23 160 -70s60 -112 60 -195c0 -152 -100 -245 -270 -245z" />
    <glyph glyph-name="q" unicode="q" horiz-adv-x="612" 
d="M473 45v300c-13 23 -30 46 -51 67c-45 45 -95 68 -149 68c-113 0 -190 -83 -190 -235c0 -137 88 -215 240 -215h135c10 0 15 5 15 15zM473 -155v140c0 10 -5 15 -15 15h-135c-170 0 -270 93 -270 245c0 83 20 148 60 195s93 70 160 70c42 0 79 -10 111 -30
c33 -19 57 -40 73 -61c11 -11 16 -3 16 10v56c0 10 5 15 15 15s15 -5 15 -15v-640c0 -10 5 -15 15 -15h70c10 0 15 -5 15 -15s-5 -15 -15 -15h-210c-10 0 -15 5 -15 15s5 15 15 15h80c10 0 15 5 15 15z" />
    <glyph glyph-name="r" unicode="r" horiz-adv-x="507" 
d="M435 480h-19c-126 0 -207 -79 -250 -155v-280c0 -10 5 -15 15 -15h80c10 0 15 -5 15 -15s-5 -15 -15 -15h-210c-10 0 -15 5 -15 15s5 15 15 15h70c10 0 15 5 15 15v410c0 10 -5 15 -15 15h-70c-10 0 -15 5 -15 15s5 15 15 15h100c10 0 15 -5 15 -15v-79
c0 -13 5 -19 16 -7c48 56 128 111 234 111h49c10 0 15 -5 15 -15v-125c0 -10 -5 -15 -15 -15s-15 5 -15 15v95c0 10 -5 15 -15 15z" />
    <glyph glyph-name="s" unicode="s" horiz-adv-x="554" 
d="M290 20c116 0 180 45 180 110c0 35 -16 54 -43 69c-58 32 -168 34 -251 55c-65 19 -116 49 -116 126c0 65 70 130 200 130c85 0 149 -50 174 -75c12 -13 16 -1 16 10v40c0 10 5 15 15 15s15 -5 15 -15v-160c0 -10 -5 -15 -15 -15s-15 5 -15 15v50c-15 19 -31 37 -50 52
c-33 27 -80 53 -140 53c-115 0 -170 -49 -170 -100c0 -36 15 -58 40 -74c59 -37 167 -40 252 -59c67 -16 118 -45 118 -117c0 -80 -70 -140 -210 -140c-79 0 -149 40 -184 75c-13 13 -16 1 -16 -10v-40c0 -10 -5 -15 -15 -15s-15 5 -15 15v160c0 10 5 15 15 15s15 -5 15 -15
v-50c14 -20 31 -38 50 -53c33 -27 82 -52 150 -52z" />
    <glyph glyph-name="t" unicode="t" horiz-adv-x="403" 
d="M265 20c51 0 87 29 110 50c8 8 14 7 21 0s6 -15 -2 -23c-21 -21 -64 -57 -129 -57c-93 0 -150 62 -150 175v290c0 10 -5 15 -15 15h-70c-10 0 -15 5 -15 15s5 15 15 15h70c10 0 15 5 15 15v170c0 10 5 15 15 15s15 -5 15 -15v-170c0 -10 5 -15 15 -15h170
c10 0 15 -5 15 -15s-5 -15 -15 -15h-170c-10 0 -15 -5 -15 -15v-290c0 -96 45 -145 120 -145z" />
    <glyph glyph-name="u" unicode="u" horiz-adv-x="650" 
d="M26 500h100c10 0 15 -5 15 -15v-295c0 -113 62 -170 165 -170c50 0 97 22 142 67c20 21 38 43 53 68v300c0 10 -5 15 -15 15h-70c-10 0 -15 5 -15 15s5 15 15 15h100c10 0 15 -5 15 -15v-440c0 -10 5 -15 15 -15h70c10 0 15 -5 15 -15s-5 -15 -15 -15h-100
c-10 0 -15 5 -15 15v56c0 13 -5 21 -16 10c-54 -61 -114 -91 -179 -91c-123 0 -195 71 -195 200v265c0 10 -5 15 -15 15h-70c-10 0 -15 5 -15 15s5 15 15 15z" />
    <glyph glyph-name="v" unicode="v" horiz-adv-x="624" 
d="M14 500h190c10 0 15 -5 15 -15s-5 -15 -15 -15h-62c-12 0 -15 -5 -10 -15l174 -407c3 -8 9 -8 12 0l174 407c5 10 2 15 -10 15h-62c-10 0 -15 5 -15 15s5 15 15 15h190c10 0 15 -5 15 -15s-5 -15 -15 -15h-65c-9 0 -15 -5 -20 -15l-193 -450c-11 -20 -29 -20 -40 0
l-193 450c-5 10 -11 15 -20 15h-65c-10 0 -15 5 -15 15s5 15 15 15z" />
    <glyph glyph-name="w" unicode="w" horiz-adv-x="864" 
d="M14 500h190c10 0 15 -5 15 -15s-5 -15 -15 -15h-60c-12 0 -15 -5 -10 -15l135 -383c3 -8 9 -8 12 0l131 413c5 20 35 20 40 0l131 -413c3 -8 9 -8 12 0l135 383c5 10 2 15 -10 15h-60c-10 0 -15 5 -15 15s5 15 15 15h190c10 0 15 -5 15 -15s-5 -15 -15 -15h-65
c-10 0 -17 -5 -20 -15l-159 -450c-5 -20 -29 -20 -34 0l-130 410c-3 11 -17 11 -20 0l-130 -410c-5 -20 -29 -20 -34 0l-159 450c-3 10 -10 15 -20 15h-65c-10 0 -15 5 -15 15s5 15 15 15z" />
    <glyph glyph-name="x" unicode="x" horiz-adv-x="579" 
d="M37 30h60c8 0 16 5 25 15l143 199c4 6 4 12 0 18l-138 193c-6 10 -14 15 -25 15h-60c-10 0 -15 5 -15 15s5 15 15 15h190c10 0 15 -5 15 -15s-5 -15 -15 -15h-60c-11 0 -17 -7 -10 -15l120 -167c5 -7 9 -7 14 0l121 167c7 8 1 15 -10 15h-60c-10 0 -15 5 -15 15
s5 15 15 15h190c10 0 15 -5 15 -15s-5 -15 -15 -15h-60c-11 0 -19 -5 -25 -15l-138 -193c-4 -6 -4 -12 0 -18l143 -199c9 -10 17 -15 25 -15h60c10 0 15 -5 15 -15s-5 -15 -15 -15h-190c-10 0 -15 5 -15 15s5 15 15 15h60c11 0 17 7 10 15l-126 174c-5 7 -9 7 -14 0
l-125 -174c-7 -8 -1 -15 10 -15h60c10 0 15 -5 15 -15s-5 -15 -15 -15h-190c-10 0 -15 5 -15 15s5 15 15 15z" />
    <glyph glyph-name="y" unicode="y" horiz-adv-x="617" 
d="M159 -210c-63 0 -105 33 -124 57c-7 7 -10 15 -2 23c7 7 14 7 21 0c23 -23 56 -50 105 -50c64 0 98 44 137 145l10 26c3 9 3 17 0 24l-207 440c-5 10 -12 15 -20 15h-65c-10 0 -15 5 -15 15s5 15 15 15h190c10 0 15 -5 15 -15s-5 -15 -15 -15h-62c-12 0 -15 -5 -10 -15
l189 -395c3 -9 7 -9 11 0l153 395c5 10 1 15 -10 15h-62c-10 0 -15 5 -15 15s5 15 15 15h190c10 0 15 -5 15 -15s-5 -15 -15 -15h-65c-9 0 -15 -5 -20 -15l-190 -490c-48 -120 -84 -175 -169 -175z" />
    <glyph glyph-name="z" unicode="z" horiz-adv-x="538" 
d="M49 17c0 6 4 14 12 23l368 414c8 7 4 16 -11 16h-318c-10 0 -15 -5 -15 -15v-95c0 -10 -5 -15 -15 -15s-15 5 -15 15v125c0 10 5 15 15 15h403c10 0 15 -6 15 -17c0 -6 -4 -14 -12 -23l-368 -414c-8 -7 -4 -16 11 -16h319c10 0 15 5 15 15v95c0 10 5 15 15 15
s15 -5 15 -15v-125c0 -10 -5 -15 -15 -15h-404c-10 0 -15 6 -15 17z" />
    <glyph glyph-name="braceleft" unicode="{" horiz-adv-x="324" 
d="M36 325h10c63 1 95 35 95 100v225c0 80 50 130 130 130h15c10 0 15 -5 15 -15s-5 -15 -15 -15h-15c-67 0 -100 -33 -100 -100v-225c0 -59 -23 -97 -70 -115c47 -18 70 -56 70 -115v-225c0 -67 33 -100 100 -100h15c10 0 15 -5 15 -15s-5 -15 -15 -15h-15
c-80 0 -130 50 -130 130v225c0 65 -32 98 -95 100h-10c-10 0 -15 5 -15 15s5 15 15 15z" />
    <glyph glyph-name="bar" unicode="|" horiz-adv-x="246" 
d="M108 -185v870c0 10 5 15 15 15s15 -5 15 -15v-870c0 -10 -5 -15 -15 -15s-15 5 -15 15z" />
    <glyph glyph-name="braceright" unicode="}" horiz-adv-x="324" 
d="M38 -130h15c67 0 100 33 100 100v225c0 59 23 97 70 115c-47 18 -70 56 -70 115v225c0 67 -33 100 -100 100h-15c-10 0 -15 5 -15 15s5 15 15 15h15c80 0 130 -50 130 -130v-225c0 -65 32 -99 95 -100h10c10 0 15 -5 15 -15s-5 -15 -15 -15h-10c-63 -2 -95 -35 -95 -100
v-225c0 -80 -50 -130 -130 -130h-15c-10 0 -15 5 -15 15s5 15 15 15z" />
    <glyph glyph-name="asciitilde" unicode="~" horiz-adv-x="524" 
d="M78 280c0 67 33 100 100 100c35 0 70 -24 90 -48c21 -23 52 -47 80 -47c47 0 70 23 70 70c0 10 5 15 15 15s15 -5 15 -15c0 -67 -33 -100 -100 -100c-35 0 -70 24 -91 47c-20 24 -51 48 -79 48c-47 0 -70 -23 -70 -70c0 -10 -5 -15 -15 -15s-15 5 -15 15z" />
    <glyph glyph-name="uni00A0" unicode="&#xa0;" 
d="M209 583c-29 31 -29 83 0 114c15 15 35 23 58 23s42 -8 57 -23c31 -31 31 -83 0 -114c-15 -15 -34 -23 -57 -23s-43 8 -58 23zM230 676c-17 -17 -17 -54 0 -73c19 -17 56 -17 73 0c19 19 19 56 0 73c-17 19 -54 19 -73 0zM421 155v90c0 10 -5 15 -15 15h-165
c-116 0 -170 -51 -170 -120c0 -71 53 -120 150 -120c55 0 104 22 149 67c19 19 36 41 51 68zM265 510c56 0 101 -16 135 -48c34 -31 51 -70 51 -117v-300c0 -10 5 -15 15 -15h70c10 0 15 -5 15 -15s-5 -15 -15 -15h-100c-10 0 -15 5 -15 15v56c0 13 -5 21 -16 10
c-18 -23 -42 -43 -73 -62c-33 -19 -70 -29 -111 -29c-117 0 -180 65 -180 150c0 83 75 150 200 150h165c10 0 15 5 15 15v40c0 76 -64 135 -156 135c-80 0 -135 -30 -162 -51c-9 -7 -16 -6 -21 2c-6 8 -5 15 2 20c36 29 96 59 181 59z" />
    <glyph glyph-name="exclamdown" unicode="&#xa1;" horiz-adv-x="240" 
d="M83 423c-17 19 -17 56 0 73c19 19 56 19 73 0c19 -17 19 -54 0 -73c-17 -17 -54 -17 -73 0zM105 -185v500c0 10 5 15 15 15s15 -5 15 -15v-500c0 -10 -5 -15 -15 -15s-15 5 -15 15z" />
    <glyph glyph-name="cent" unicode="&#xa2;" horiz-adv-x="578" 
d="M272 -65v56c-61 4 -111 28 -150 71c-43 49 -65 111 -65 188s21 139 63 187c41 48 92 72 152 73v55c0 10 5 15 15 15s15 -5 15 -15v-56c55 -6 104 -31 149 -74c12 -11 16 -3 16 10v40c0 10 5 15 15 15s15 -5 15 -15v-160c0 -10 -5 -15 -15 -15s-15 5 -15 15v50
c-16 21 -33 38 -50 52c-36 29 -74 46 -115 51v-458c97 3 145 46 173 72c9 8 15 3 22 -4c7 -8 6 -15 -1 -21c-34 -31 -92 -74 -194 -77v-55c0 -10 -5 -15 -15 -15s-15 5 -15 15zM144 82c35 -37 77 -58 128 -62v460c-51 -2 -95 -23 -131 -64c-36 -43 -54 -99 -54 -166
c0 -70 19 -126 57 -168z" />
    <glyph glyph-name="sterling" unicode="&#xa3;" horiz-adv-x="578" 
d="M51 30c64 0 110 50 110 145v150c0 10 -5 15 -15 15h-70c-10 0 -15 5 -15 15s5 15 15 15h70c10 0 15 5 15 15v140c0 119 57 185 150 185c89 0 150 -63 150 -155c0 -10 -5 -15 -15 -15s-15 5 -15 15c0 76 -48 125 -120 125c-73 0 -120 -54 -120 -155v-140
c0 -10 5 -15 15 -15h120c10 0 15 -5 15 -15s-5 -15 -15 -15h-120c-10 0 -15 -5 -15 -15v-150c0 -67 -18 -116 -55 -145h265c61 0 110 47 110 115c0 10 5 15 15 15s15 -5 15 -15c0 -84 -60 -145 -140 -145h-350c-10 0 -15 5 -15 15s5 15 15 15z" />
    <glyph glyph-name="currency" unicode="&#xa4;" horiz-adv-x="653" 
d="M80 30h70c10 0 15 5 15 15v135c0 10 -5 15 -15 15h-70c-10 0 -15 5 -15 15s5 15 15 15h70c10 0 15 5 15 15v45c0 10 -5 15 -15 15h-70c-10 0 -15 5 -15 15s5 15 15 15h70c10 0 15 5 15 15v310c0 10 -5 15 -15 15h-70c-10 0 -15 5 -15 15s5 15 15 15h335
c129 0 200 -73 200 -200s-71 -200 -200 -200h-205c-10 0 -15 -5 -15 -15v-45c0 -10 5 -15 15 -15h280c10 0 15 -5 15 -15s-5 -15 -15 -15h-280c-10 0 -15 -5 -15 -15v-135c0 -10 5 -15 15 -15h80c10 0 15 -5 15 -15s-5 -15 -15 -15h-210c-10 0 -15 5 -15 15s5 15 15 15z
M195 655v-310c0 -10 5 -15 15 -15h205c111 0 170 59 170 170s-59 170 -170 170h-205c-10 0 -15 -5 -15 -15z" />
    <glyph glyph-name="yen" unicode="&#xa5;" horiz-adv-x="703" 
d="M43 700h190c10 0 15 -5 15 -15s-5 -15 -15 -15h-60c-11 0 -15 -7 -10 -15l181 -316c5 -7 9 -7 14 0l182 316c5 8 1 15 -10 15h-60c-10 0 -15 5 -15 15s5 15 15 15h190c10 0 15 -5 15 -15s-5 -15 -15 -15h-60c-11 0 -19 -5 -25 -15l-193 -335c-5 -10 -2 -15 10 -15h115
c10 0 15 -5 15 -15s-5 -15 -15 -15h-125c-10 0 -15 -5 -15 -15v-60c0 -10 5 -15 15 -15h125c10 0 15 -5 15 -15s-5 -15 -15 -15h-125c-10 0 -15 -5 -15 -15v-95c0 -10 5 -15 15 -15h70c10 0 15 -5 15 -15s-5 -15 -15 -15h-200c-10 0 -15 5 -15 15s5 15 15 15h70
c10 0 15 5 15 15v95c0 10 -5 15 -15 15h-125c-10 0 -15 5 -15 15s5 15 15 15h125c10 0 15 5 15 15v60c0 10 -5 15 -15 15h-125c-10 0 -15 5 -15 15s5 15 15 15h115c11 0 14 5 9 15l-193 335c-6 10 -14 15 -25 15h-60c-10 0 -15 5 -15 15s5 15 15 15z" />
    <glyph glyph-name="brokenbar" unicode="&#xa6;" horiz-adv-x="256" 
d="M113 -185v350c0 10 5 15 15 15s15 -5 15 -15v-350c0 -10 -5 -15 -15 -15s-15 5 -15 15zM113 335v350c0 10 5 15 15 15s15 -5 15 -15v-350c0 -10 -5 -15 -15 -15s-15 5 -15 15z" />
    <glyph glyph-name="section" unicode="&#xa7;" horiz-adv-x="582" 
d="M269 136l60 -16c109 0 160 50 160 110c0 43 -21 74 -56 93c-32 19 -75 29 -120 41l-60 16c-110 0 -160 -51 -160 -110c0 -44 21 -74 56 -93c32 -19 75 -29 120 -41zM513 -40c0 -90 -71 -160 -220 -160c-85 0 -166 29 -201 59c-7 5 -8 12 -2 20c5 8 12 9 21 2
c27 -21 102 -51 182 -51c129 0 190 55 190 130c0 59 -44 87 -104 110c-63 23 -141 38 -205 63c-63 24 -111 62 -111 137c0 59 39 110 106 129c7 3 7 7 0 10c-59 24 -100 59 -100 131c0 90 71 160 220 160c86 0 164 -30 201 -59c7 -5 8 -12 2 -20c-5 -8 -12 -9 -21 -2
c-27 21 -102 51 -182 51c-131 0 -190 -55 -190 -130c0 -59 44 -87 104 -110c63 -23 141 -38 205 -63c63 -24 111 -63 111 -137c0 -59 -41 -110 -106 -129c-7 -3 -7 -7 0 -10c59 -24 100 -59 100 -131z" />
    <glyph glyph-name="dieresis" unicode="&#xa8;" horiz-adv-x="240" 
d="M11 571c-15 16 -15 42 0 57c16 16 42 16 57 0c16 -15 16 -41 0 -57c-15 -15 -41 -15 -57 0zM171 571c-15 16 -15 42 0 57c16 16 42 16 57 0c16 -15 16 -41 0 -57c-15 -15 -41 -15 -57 0z" />
    <glyph glyph-name="copyright" unicode="&#xa9;" horiz-adv-x="878" 
d="M165 71c-74 75 -111 168 -111 279s37 204 111 278c75 75 166 112 274 112s199 -37 273 -112c75 -74 112 -167 112 -278s-37 -204 -112 -279c-74 -74 -165 -111 -273 -111s-199 37 -274 111zM184 609c-67 -67 -100 -154 -100 -259s33 -192 100 -259s152 -101 255 -101
s187 34 254 101s101 154 101 259s-34 192 -101 259s-151 101 -254 101s-188 -34 -255 -101zM229 350c0 72 19 130 56 174c38 44 86 66 144 66h-5c56 0 107 -23 154 -70c12 -9 16 -3 16 10v40c0 10 5 15 15 15s15 -5 15 -15v-150c0 -10 -5 -15 -15 -15s-15 5 -15 15v40
c-12 15 -28 31 -49 50c-41 33 -80 50 -116 50c-49 0 -90 -19 -122 -57s-48 -89 -48 -153c0 -65 17 -116 51 -154c34 -37 79 -56 134 -56c71 0 128 34 169 101c5 7 12 8 19 2c5 -3 7 -6 7 -10s-2 -8 -5 -13c-47 -73 -110 -110 -190 -110c-65 0 -117 22 -156 65
c-39 44 -59 102 -59 175z" />
    <glyph glyph-name="ordfeminine" unicode="&#xaa;" horiz-adv-x="420" 
d="M270 595v4c0 51 -27 76 -80 76c-35 0 -65 -12 -88 -37c-7 -7 -14 -7 -21 0s-7 14 0 21c21 27 65 46 109 46c69 0 110 -43 110 -106v-164c0 -10 5 -15 15 -15h20c10 0 15 -5 15 -15s-5 -15 -15 -15h-50c-10 0 -15 5 -15 15v25c-7 -7 -17 -15 -28 -23
c-25 -15 -49 -22 -72 -22c-65 0 -110 36 -110 95c0 61 41 100 120 100h75c10 0 15 5 15 15zM270 470v65c0 10 -5 15 -15 15h-75c-59 0 -90 -29 -90 -70c0 -37 32 -65 85 -65c21 0 43 9 66 27c12 9 22 19 29 28z" />
    <glyph glyph-name="guillemotleft" unicode="&#xab;" horiz-adv-x="499" 
d="M47 265l231 230c7 7 13 7 21 0c7 -7 7 -14 0 -21l-216 -216c-6 -6 -6 -12 0 -18l214 -214c7 -7 7 -14 0 -21c-8 -7 -14 -7 -21 0l-228 227c-6 6 -9 12 -9 17s3 11 8 16zM217 265l186 185c14 14 35 -7 21 -21l-171 -171c-6 -6 -6 -12 0 -18l169 -169
c14 -14 -7 -35 -21 -21l-183 182c-6 6 -9 12 -9 17s3 11 8 16z" />
    <glyph glyph-name="logicalnot" unicode="&#xac;" horiz-adv-x="592" 
d="M107 345h390c10 0 15 -5 15 -15v-105c0 -10 -5 -15 -15 -15s-15 5 -15 15v75c0 10 -5 15 -15 15h-360c-10 0 -15 5 -15 15s5 15 15 15z" />
    <glyph glyph-name="uni00AD" unicode="&#xad;" 
d="M91 335h390c10 0 15 -5 15 -15s-5 -15 -15 -15h-390c-10 0 -15 5 -15 15s5 15 15 15z" />
    <glyph glyph-name="registered" unicode="&#xae;" horiz-adv-x="878" 
d="M165 71c-74 75 -111 168 -111 279s37 204 111 278c75 75 166 112 274 112s199 -37 273 -112c75 -74 112 -167 112 -278s-37 -204 -112 -279c-74 -74 -165 -111 -273 -111s-199 37 -274 111zM184 609c-67 -67 -100 -154 -100 -259s33 -192 100 -259s152 -101 255 -101
s187 34 254 101s101 154 101 259s-34 192 -101 259s-151 101 -254 101s-188 -34 -255 -101zM339 535v-160c0 -10 5 -15 15 -15h130c72 0 115 42 115 95s-43 95 -115 95h-130c-10 0 -15 -5 -15 -15zM339 315v-160c0 -10 5 -15 15 -15h30c10 0 15 -5 15 -15s-5 -15 -15 -15
h-140c-10 0 -15 5 -15 15s5 15 15 15h50c10 0 15 5 15 15v380c0 10 -5 15 -15 15h-50c-10 0 -15 5 -15 15s5 15 15 15h240c89 0 145 -52 145 -125s-56 -125 -145 -125c-11 0 -17 -7 -10 -15l104 -160c9 -10 17 -15 25 -15h45c10 0 15 -5 15 -15s-5 -15 -15 -15h-145
c-10 0 -15 5 -15 15s5 15 15 15h33c12 0 14 5 5 15l-114 175h-73c-10 0 -15 -5 -15 -15z" />
    <glyph glyph-name="degree" unicode="&#xb0;" horiz-adv-x="440" 
d="M102 419c-31 33 -47 73 -47 121s16 88 47 121s71 49 118 49s87 -16 118 -49s47 -73 47 -121s-16 -88 -47 -121s-71 -49 -118 -49s-87 16 -118 49zM124 640c-26 -27 -39 -60 -39 -100s13 -73 39 -100s58 -40 96 -40s70 13 96 40s39 60 39 100s-13 73 -39 100
s-58 40 -96 40s-70 -13 -96 -40z" />
    <glyph glyph-name="plusminus" unicode="&#xb1;" horiz-adv-x="511" 
d="M60 115h390c10 0 15 -5 15 -15s-5 -15 -15 -15h-390c-10 0 -15 5 -15 15s5 15 15 15zM60 335h160c10 0 15 5 15 15v165c0 10 5 15 15 15s15 -5 15 -15v-165c0 -10 5 -15 15 -15h170c10 0 15 -5 15 -15s-5 -15 -15 -15h-170c-10 0 -15 -5 -15 -15v-125
c0 -10 -5 -15 -15 -15s-15 5 -15 15v125c0 10 -5 15 -15 15h-160c-10 0 -15 5 -15 15s5 15 15 15z" />
    <glyph glyph-name="uni00B2" unicode="&#xb2;" horiz-adv-x="401" 
d="M75 405v30c0 28 11 51 34 69s49 30 76 36c27 7 52 16 75 28c23 13 35 28 35 47c0 40 -33 60 -100 60c-41 0 -74 -14 -99 -41c-5 -9 -12 -9 -21 0c-7 7 -7 13 0 21c33 33 73 50 120 50c87 0 130 -30 130 -90c0 -43 -34 -69 -77 -84l-66 -20c-43 -13 -77 -37 -77 -76
c0 -10 5 -15 15 -15h160c10 0 15 5 15 15v25c0 10 5 15 15 15s15 -5 15 -15v-55c0 -10 -5 -15 -15 -15h-220c-10 0 -15 5 -15 15z" />
    <glyph glyph-name="uni00B3" unicode="&#xb3;" horiz-adv-x="381" 
d="M71 435c-7 7 -7 14 0 21s14 7 21 0c21 -23 61 -41 100 -41c63 0 95 18 95 55c0 40 -29 65 -80 65h-65c-10 0 -15 5 -15 15c0 9 5 14 15 14h65c47 0 70 19 70 56s-30 55 -90 55c-39 0 -70 -12 -93 -37c-7 -7 -14 -7 -21 0c-8 7 -8 14 0 21c21 25 70 46 114 46
c79 0 120 -33 120 -85c0 -33 -17 -56 -50 -70c40 -15 60 -41 60 -80c0 -53 -42 -85 -125 -85c-48 0 -98 23 -121 50z" />
    <glyph glyph-name="acute" unicode="&#xb4;" horiz-adv-x="122" 
d="M4 584l89 127c6 10 13 11 21 4c9 -5 10 -11 4 -20l-90 -128c-6 -7 -13 -8 -21 -3s-9 12 -3 20z" />
    <glyph glyph-name="uni00B5" unicode="&#xb5;" horiz-adv-x="688" 
d="M52 500h100c10 0 15 -5 15 -15v-304c0 -107 63 -161 170 -161c49 0 96 23 140 70c18 19 35 43 50 70v295c0 10 -5 15 -15 15h-70c-10 0 -15 5 -15 15s5 15 15 15h100c10 0 15 -5 15 -15v-440c0 -10 5 -15 15 -15h70c10 0 15 -5 15 -15s-5 -15 -15 -15h-100
c-10 0 -15 5 -15 15v56c0 13 -4 21 -16 10c-54 -61 -112 -91 -174 -91c-80 0 -137 27 -170 80v-255c0 -10 -5 -15 -15 -15s-15 5 -15 15v640c0 10 -5 15 -15 15h-70c-10 0 -15 5 -15 15s5 15 15 15z" />
    <glyph glyph-name="paragraph" unicode="&#xb6;" horiz-adv-x="735" 
d="M327 220h-45c-148 0 -245 87 -245 240s97 240 245 240h405c10 0 15 -5 15 -15s-5 -15 -15 -15h-100c-10 0 -15 -5 -15 -15v-840c0 -10 -5 -15 -15 -15s-15 5 -15 15v840c0 10 -5 15 -15 15h-140c-10 0 -15 -5 -15 -15v-840c0 -10 -5 -15 -15 -15s-15 5 -15 15v390
c0 10 -5 15 -15 15zM282 250h45c10 0 15 5 15 15v390c0 10 -5 15 -15 15h-45c-136 0 -215 -73 -215 -210s79 -210 215 -210z" />
    <glyph glyph-name="middot" unicode="&#xb7;" horiz-adv-x="252" 
d="M89 313c-17 19 -17 56 0 73c19 19 56 19 73 0c19 -17 19 -54 0 -73c-17 -17 -54 -17 -73 0z" />
    <glyph glyph-name="cedilla" unicode="&#xb8;" horiz-adv-x="115" 
d="M15 -150c47 0 70 13 70 40c0 23 -17 40 -50 40h-15c-10 0 -15 5 -15 15v55c0 10 5 15 15 15s15 -5 15 -15v-40c49 0 80 -29 80 -70c0 -43 -32 -70 -100 -70c-10 0 -15 5 -15 15s5 15 15 15z" />
    <glyph glyph-name="uni00B9" unicode="&#xb9;" horiz-adv-x="309" 
d="M63 607c-3 4 -5 8 -5 11c0 4 2 8 7 11l74 61c14 10 23 15 27 15c13 0 20 -5 20 -15v-255c0 -10 5 -15 15 -15h40c10 0 15 -5 15 -15s-5 -15 -15 -15h-140c-10 0 -15 5 -15 15s5 15 15 15h40c10 0 15 5 15 15v220c0 6 -6 6 -14 0l-57 -49c-7 -7 -15 -6 -22 1z" />
    <glyph glyph-name="ordmasculine" unicode="&#xba;" horiz-adv-x="396" 
d="M97 428c-26 29 -39 68 -39 117s13 87 39 116c27 29 60 44 101 44s74 -15 100 -44c27 -29 40 -67 40 -116s-13 -88 -40 -117c-26 -29 -59 -43 -100 -43s-74 14 -101 43zM118 641c-20 -23 -30 -55 -30 -96s10 -73 30 -96s47 -34 80 -34s60 11 80 34s30 55 30 96
s-10 73 -30 96s-47 34 -80 34s-60 -11 -80 -34z" />
    <glyph glyph-name="guillemotright" unicode="&#xbb;" horiz-adv-x="499" 
d="M246 258l-171 171c-8 7 -8 14 0 21c7 7 14 7 21 0l186 -185c5 -5 8 -11 8 -16s-3 -11 -9 -17l-183 -182c-7 -7 -14 -7 -21 0c-8 7 -8 14 0 21l169 169c6 6 6 12 0 18zM416 258l-216 216c-14 14 6 34 21 21l231 -230c5 -5 8 -11 8 -16s-3 -11 -9 -17l-228 -227
c-14 -14 -35 7 -21 21l214 214c6 6 6 12 0 18z" />
    <glyph glyph-name="onequarter" unicode="&#xbc;" horiz-adv-x="672" 
d="M49 608c-3 4 -5 8 -5 11c0 4 2 8 7 11l74 61c14 10 23 15 27 15c13 0 20 -5 20 -15v-255c0 -10 5 -15 15 -15h40c10 0 15 -5 15 -15s-5 -15 -15 -15h-140c-10 0 -15 5 -15 15s5 15 15 15h40c10 0 15 5 15 15v220c0 6 -6 6 -14 0l-57 -49c-7 -7 -15 -7 -22 1zM104 23
l433 669c3 5 7 7 12 7c3 0 5 -1 8 -2c9 -7 11 -13 4 -20l-432 -670c-5 -7 -12 -9 -20 -5c-6 3 -9 7 -9 12c0 3 1 6 4 9zM344 88v5c0 3 1 5 3 7c67 57 100 110 100 205c0 10 5 15 15 15s15 -5 15 -15c0 -87 -32 -158 -75 -195h130c10 0 15 5 15 15v106c0 10 5 15 15 15
s15 -5 15 -15v-106c0 -10 5 -15 15 -15h30c10 0 15 -5 15 -15s-5 -15 -15 -15h-30c-10 0 -15 -5 -15 -15v-55c0 -10 -5 -15 -15 -15s-15 5 -15 15v55c0 10 -5 15 -15 15h-175c-7 0 -11 3 -13 8z" />
    <glyph glyph-name="onehalf" unicode="&#xbd;" horiz-adv-x="674" 
d="M44 608c-3 4 -5 8 -5 11c0 4 2 8 7 11l74 61c14 10 23 15 27 15c13 0 20 -5 20 -15v-255c0 -10 5 -15 15 -15h40c10 0 15 -5 15 -15s-5 -15 -15 -15h-140c-10 0 -15 5 -15 15s5 15 15 15h40c10 0 15 5 15 15v220c0 6 -6 6 -14 0l-57 -49c-7 -7 -14 -7 -22 1zM99 23
l433 669c3 5 7 7 12 7c3 0 5 -1 8 -2c9 -7 11 -13 4 -20l-432 -670c-3 -5 -7 -7 -12 -7c-3 0 -5 1 -8 2c-6 3 -9 7 -9 12c0 3 1 6 4 9zM375 15v30c0 28 11 51 34 69s49 30 76 36c27 7 52 16 75 28c23 13 35 28 35 47c0 40 -33 60 -100 60c-41 0 -74 -14 -99 -41
c-5 -9 -12 -9 -21 0c-7 7 -7 14 0 21c33 33 73 50 120 50c87 0 130 -30 130 -90c0 -43 -34 -70 -77 -83l-65 -21c-44 -13 -78 -37 -78 -76c0 -10 5 -15 15 -15h160c10 0 15 5 15 15v25c0 10 5 15 15 15s15 -5 15 -15v-55c0 -10 -5 -15 -15 -15h-220c-10 0 -15 5 -15 15z" />
    <glyph glyph-name="threequarters" unicode="&#xbe;" horiz-adv-x="706" 
d="M54 435c-7 8 -7 14 0 21s14 7 21 0c21 -23 61 -41 100 -41c63 0 95 18 95 55c0 40 -29 65 -80 65h-65c-10 0 -15 5 -15 15c0 9 5 14 15 14h65c47 0 70 19 70 56s-30 55 -90 55c-39 0 -70 -12 -93 -37c-7 -7 -14 -7 -21 0s-7 14 0 21c21 25 70 46 114 46
c79 0 120 -33 120 -85c0 -33 -17 -56 -50 -70c40 -15 60 -41 60 -80c0 -53 -42 -85 -125 -85c-48 0 -98 23 -121 50zM138 23l433 669c3 5 7 7 12 7c3 0 5 -1 8 -2c9 -7 11 -13 4 -20l-432 -670c-5 -7 -12 -9 -20 -5c-6 3 -9 7 -9 12c0 3 1 6 4 9zM378 88v5c0 3 1 5 3 7
c67 57 100 110 100 205c0 10 5 15 15 15s15 -5 15 -15c0 -87 -32 -158 -75 -195h130c10 0 15 5 15 15v106c0 10 5 15 15 15s15 -5 15 -15v-106c0 -10 5 -15 15 -15h30c10 0 15 -5 15 -15s-5 -15 -15 -15h-30c-10 0 -15 -5 -15 -15v-55c0 -10 -5 -15 -15 -15s-15 5 -15 15v55
c0 10 -5 15 -15 15h-175c-7 0 -11 3 -13 8z" />
    <glyph glyph-name="questiondown" unicode="&#xbf;" horiz-adv-x="532" 
d="M40 -20c0 81 40 126 85 161l45 35c45 33 85 72 85 139c0 10 5 15 15 15s15 -5 15 -15c0 -68 -34 -118 -75 -150l-64 -46c-43 -31 -76 -76 -76 -139c0 -43 18 -80 54 -112s85 -48 146 -48c124 0 200 65 200 170c0 10 5 15 15 15s15 -5 15 -15c0 -121 -86 -200 -230 -200
c-71 0 -128 19 -169 57c-41 37 -61 82 -61 133zM234 424c-19 19 -19 53 0 72s53 19 72 0s19 -53 0 -72s-53 -19 -72 0z" />
    <glyph glyph-name="Agrave" unicode="&#xc0;" horiz-adv-x="724" 
d="M347 762l-90 128c-3 3 -4 7 -4 10c0 4 3 7 8 10c3 3 7 5 10 5c4 0 8 -3 11 -9l89 -127c3 -3 4 -7 4 -10s-2 -7 -7 -10c-4 -2 -7 -3 -10 -3c-5 0 -8 2 -11 6zM505 289l-137 356c-3 8 -9 8 -12 0l-137 -356c-5 -10 -2 -15 11 -15h264c12 0 16 5 11 15zM599 45l-71 185
c-4 9 -12 14 -24 14h-284c-12 0 -20 -5 -24 -14l-71 -185c-5 -10 -2 -15 10 -15h60c10 0 15 -5 15 -15s-5 -15 -15 -15h-190c-10 0 -15 5 -15 15s5 15 15 15h65c8 0 15 5 20 15l250 650c6 20 38 20 44 0l250 -650c5 -10 11 -15 20 -15h65c10 0 15 -5 15 -15s-5 -15 -15 -15
h-190c-10 0 -15 5 -15 15s5 15 15 15h60c11 0 15 5 10 15z" />
    <glyph glyph-name="Aacute" unicode="&#xc1;" horiz-adv-x="724" 
d="M351 779l89 127c3 6 7 9 11 9c3 0 7 -2 10 -5c5 -3 8 -6 8 -10c0 -3 -1 -7 -4 -10l-90 -128c-3 -4 -7 -6 -12 -6c-3 0 -6 1 -9 3c-5 3 -7 7 -7 10s1 7 4 10zM505 289l-137 356c-3 8 -9 8 -12 0l-137 -356c-5 -10 -2 -15 11 -15h264c12 0 16 5 11 15zM599 45l-71 185
c-4 9 -12 14 -24 14h-284c-12 0 -20 -5 -24 -14l-71 -185c-5 -10 -2 -15 10 -15h60c10 0 15 -5 15 -15s-5 -15 -15 -15h-190c-10 0 -15 5 -15 15s5 15 15 15h65c8 0 15 5 20 15l250 650c6 20 38 20 44 0l250 -650c5 -10 11 -15 20 -15h65c10 0 15 -5 15 -15s-5 -15 -15 -15
h-190c-10 0 -15 5 -15 15s5 15 15 15h60c11 0 15 5 10 15z" />
    <glyph glyph-name="Acircumflex" unicode="&#xc2;" horiz-adv-x="724" 
d="M237 761l107 109c6 6 12 9 17 9s11 -3 16 -8l110 -110c17 -14 -8 -34 -21 -21l-96 95c-6 6 -12 6 -18 0l-94 -95c-13 -13 -35 7 -21 21zM505 289l-137 356c-3 8 -9 8 -12 0l-137 -356c-5 -10 -2 -15 11 -15h264c12 0 16 5 11 15zM599 45l-71 185c-4 9 -12 14 -24 14h-284
c-12 0 -20 -5 -24 -14l-71 -185c-5 -10 -2 -15 10 -15h60c10 0 15 -5 15 -15s-5 -15 -15 -15h-190c-10 0 -15 5 -15 15s5 15 15 15h65c8 0 15 5 20 15l250 650c6 20 38 20 44 0l250 -650c5 -10 11 -15 20 -15h65c10 0 15 -5 15 -15s-5 -15 -15 -15h-190c-10 0 -15 5 -15 15
s5 15 15 15h60c11 0 15 5 10 15z" />
    <glyph glyph-name="Atilde" unicode="&#xc3;" horiz-adv-x="724" 
d="M237 761c0 57 29 90 70 90c65 0 64 -75 110 -75c27 0 40 20 40 60c0 10 5 15 15 15s15 -5 15 -15c0 -59 -29 -90 -70 -90c-65 0 -64 75 -110 75c-27 0 -40 -20 -40 -60c0 -10 -5 -15 -15 -15s-15 5 -15 15zM505 289l-137 356c-3 8 -9 8 -12 0l-137 -356
c-5 -10 -2 -15 11 -15h264c12 0 16 5 11 15zM599 45l-71 185c-4 9 -12 14 -24 14h-284c-12 0 -20 -5 -24 -14l-71 -185c-5 -10 -2 -15 10 -15h60c10 0 15 -5 15 -15s-5 -15 -15 -15h-190c-10 0 -15 5 -15 15s5 15 15 15h65c8 0 15 5 20 15l250 650c6 20 38 20 44 0l250 -650
c5 -10 11 -15 20 -15h65c10 0 15 -5 15 -15s-5 -15 -15 -15h-190c-10 0 -15 5 -15 15s5 15 15 15h60c11 0 15 5 10 15z" />
    <glyph glyph-name="Adieresis" unicode="&#xc4;" horiz-adv-x="724" 
d="M253 756c-15 16 -15 42 0 57c16 16 42 16 57 0c16 -15 16 -41 0 -57c-15 -15 -41 -15 -57 0zM413 756c-15 16 -15 42 0 57c16 16 42 16 57 0c16 -15 16 -41 0 -57c-15 -15 -41 -15 -57 0zM505 289l-137 356c-3 8 -9 8 -12 0l-137 -356c-5 -10 -2 -15 11 -15h264
c12 0 16 5 11 15zM599 45l-71 185c-4 9 -12 14 -24 14h-284c-12 0 -20 -5 -24 -14l-71 -185c-5 -10 -2 -15 10 -15h60c10 0 15 -5 15 -15s-5 -15 -15 -15h-190c-10 0 -15 5 -15 15s5 15 15 15h65c8 0 15 5 20 15l250 650c6 20 38 20 44 0l250 -650c5 -10 11 -15 20 -15h65
c10 0 15 -5 15 -15s-5 -15 -15 -15h-190c-10 0 -15 5 -15 15s5 15 15 15h60c11 0 15 5 10 15z" />
    <glyph glyph-name="Aring" unicode="&#xc5;" horiz-adv-x="725" 
d="M599 45l-71 185c-4 9 -12 14 -24 14h-284c-12 0 -20 -5 -24 -14l-71 -185c-5 -10 -2 -15 10 -15h60c10 0 15 -5 15 -15s-5 -15 -15 -15h-190c-10 0 -15 5 -15 15s5 15 15 15h65c8 0 15 5 20 15l246 639c-35 12 -53 37 -53 76c0 45 32 80 79 80s81 -35 81 -80
c0 -36 -20 -65 -55 -76l246 -639c5 -10 11 -15 20 -15h65c10 0 15 -5 15 -15s-5 -15 -15 -15h-190c-10 0 -15 5 -15 15s5 15 15 15h60c11 0 15 5 10 15zM505 289l-137 356c-3 8 -9 8 -12 0l-137 -356c-5 -10 -2 -15 11 -15h264c12 0 16 5 11 15zM411 760c0 31 -22 50 -49 50
s-49 -19 -49 -50s22 -50 49 -50s49 19 49 50z" />
    <glyph glyph-name="AE" unicode="&#xc6;" horiz-adv-x="964" 
d="M496 45v210c0 10 -5 15 -15 15h-229c-12 0 -20 -5 -24 -14l-117 -211c-5 -10 -2 -15 10 -15h60c10 0 15 -5 15 -15s-5 -15 -15 -15h-190c-10 0 -15 5 -15 15s5 15 15 15h65c8 0 15 5 20 15l352 635c6 13 15 20 26 20h432c10 0 15 -5 15 -15v-140c0 -10 -5 -15 -15 -15
s-15 5 -15 15v110c0 10 -5 15 -15 15h-315c-10 0 -15 -5 -15 -15v-270c0 -10 5 -15 15 -15h225c10 0 15 5 15 15v50c0 10 5 15 15 15s15 -5 15 -15v-160c0 -10 -5 -15 -15 -15s-15 5 -15 15v50c0 10 -5 15 -15 15h-225c-10 0 -15 -5 -15 -15v-280c0 -10 5 -15 15 -15h325
c10 0 15 5 15 15v110c0 10 5 15 15 15s15 -5 15 -15v-140c0 -10 -5 -15 -15 -15h-475c-10 0 -15 5 -15 15s5 15 15 15h60c10 0 15 5 15 15zM496 315v340c0 10 -5 15 -15 15h-11c-9 0 -15 -5 -20 -15l-189 -340c-5 -10 -2 -15 11 -15h209c10 0 15 5 15 15z" />
    <glyph glyph-name="Ccedilla" unicode="&#xc7;" horiz-adv-x="696" 
d="M367 -150c47 0 70 13 70 40c0 23 -17 40 -50 40h-15c-10 0 -15 5 -15 15v55c0 10 5 15 15 15s15 -5 15 -15v-40c49 0 80 -29 80 -70c0 -43 -32 -70 -100 -70c-10 0 -15 5 -15 15s5 15 15 15zM59 350c0 104 29 190 88 257c59 69 134 103 227 103c81 0 154 -28 219 -85
c11 -9 16 -5 16 10v50c0 10 5 15 15 15s15 -5 15 -15v-190c0 -10 -5 -15 -15 -15s-15 5 -15 15v70c-18 21 -39 40 -63 57c-55 39 -112 58 -172 58c-82 0 -150 -31 -204 -94s-81 -142 -81 -236c0 -96 28 -175 84 -237s130 -93 221 -93c92 0 172 31 229 91c7 7 14 7 21 0
s7 -14 0 -21c-64 -63 -142 -100 -250 -100c-101 0 -182 34 -243 101c-61 69 -92 155 -92 259z" />
    <glyph glyph-name="Egrave" unicode="&#xc8;" horiz-adv-x="614" 
d="M61 30h70c10 0 15 5 15 15v610c0 10 -5 15 -15 15h-70c-10 0 -15 5 -15 15s5 15 15 15h475c10 0 15 -5 15 -15v-140c0 -10 -5 -15 -15 -15s-15 5 -15 15v110c0 10 -5 15 -15 15h-315c-10 0 -15 -5 -15 -15v-270c0 -10 5 -15 15 -15h225c10 0 15 5 15 15v50
c0 10 5 15 15 15s15 -5 15 -15v-160c0 -10 -5 -15 -15 -15s-15 5 -15 15v50c0 10 -5 15 -15 15h-225c-10 0 -15 -5 -15 -15v-280c0 -10 5 -15 15 -15h325c10 0 15 5 15 15v110c0 10 5 15 15 15s15 -5 15 -15v-140c0 -10 -5 -15 -15 -15h-485c-10 0 -15 5 -15 15s5 15 15 15z
M326 767l-90 128c-3 3 -4 7 -4 10c0 4 3 7 8 10c3 3 7 5 10 5c4 0 8 -3 11 -9l89 -127c3 -3 4 -7 4 -10s-2 -7 -7 -10c-3 -2 -7 -3 -10 -3c-4 0 -8 2 -11 6z" />
    <glyph glyph-name="Eacute" unicode="&#xc9;" horiz-adv-x="614" 
d="M61 30h70c10 0 15 5 15 15v610c0 10 -5 15 -15 15h-70c-10 0 -15 5 -15 15s5 15 15 15h475c10 0 15 -5 15 -15v-140c0 -10 -5 -15 -15 -15s-15 5 -15 15v110c0 10 -5 15 -15 15h-315c-10 0 -15 -5 -15 -15v-270c0 -10 5 -15 15 -15h225c10 0 15 5 15 15v50
c0 10 5 15 15 15s15 -5 15 -15v-160c0 -10 -5 -15 -15 -15s-15 5 -15 15v50c0 10 -5 15 -15 15h-225c-10 0 -15 -5 -15 -15v-280c0 -10 5 -15 15 -15h325c10 0 15 5 15 15v110c0 10 5 15 15 15s15 -5 15 -15v-140c0 -10 -5 -15 -15 -15h-485c-10 0 -15 5 -15 15s5 15 15 15z
M296 774l89 127c3 6 7 9 11 9c3 0 7 -2 10 -5c5 -3 8 -6 8 -10c0 -3 -1 -7 -4 -10l-90 -128c-3 -4 -7 -6 -11 -6c-3 0 -7 1 -10 3c-5 3 -7 7 -7 10s1 7 4 10z" />
    <glyph glyph-name="Ecircumflex" unicode="&#xca;" horiz-adv-x="614" 
d="M61 30h70c10 0 15 5 15 15v610c0 10 -5 15 -15 15h-70c-10 0 -15 5 -15 15s5 15 15 15h475c10 0 15 -5 15 -15v-140c0 -10 -5 -15 -15 -15s-15 5 -15 15v110c0 10 -5 15 -15 15h-315c-10 0 -15 -5 -15 -15v-270c0 -10 5 -15 15 -15h225c10 0 15 5 15 15v50
c0 10 5 15 15 15s15 -5 15 -15v-160c0 -10 -5 -15 -15 -15s-15 5 -15 15v50c0 10 -5 15 -15 15h-225c-10 0 -15 -5 -15 -15v-280c0 -10 5 -15 15 -15h325c10 0 15 5 15 15v110c0 10 5 15 15 15s15 -5 15 -15v-140c0 -10 -5 -15 -15 -15h-485c-10 0 -15 5 -15 15s5 15 15 15z
M188 787l107 109c6 6 12 9 17 9s11 -3 16 -8l110 -110c14 -14 -7 -35 -21 -21l-96 95c-6 6 -12 6 -18 0l-94 -95c-14 -14 -35 7 -21 21z" />
    <glyph glyph-name="Edieresis" unicode="&#xcb;" horiz-adv-x="614" 
d="M61 30h70c10 0 15 5 15 15v610c0 10 -5 15 -15 15h-70c-10 0 -15 5 -15 15s5 15 15 15h475c10 0 15 -5 15 -15v-140c0 -10 -5 -15 -15 -15s-15 5 -15 15v110c0 10 -5 15 -15 15h-315c-10 0 -15 -5 -15 -15v-270c0 -10 5 -15 15 -15h225c10 0 15 5 15 15v50
c0 10 5 15 15 15s15 -5 15 -15v-160c0 -10 -5 -15 -15 -15s-15 5 -15 15v50c0 10 -5 15 -15 15h-225c-10 0 -15 -5 -15 -15v-280c0 -10 5 -15 15 -15h325c10 0 15 5 15 15v110c0 10 5 15 15 15s15 -5 15 -15v-140c0 -10 -5 -15 -15 -15h-485c-10 0 -15 5 -15 15s5 15 15 15z
M214 781c-15 16 -15 42 0 57c16 16 42 16 57 0c16 -15 16 -41 0 -57c-15 -15 -41 -15 -57 0zM374 781c-15 16 -15 42 0 57c16 16 42 16 57 0c16 -15 16 -41 0 -57c-15 -15 -41 -15 -57 0z" />
    <glyph glyph-name="Igrave" unicode="&#xcc;" horiz-adv-x="322" 
d="M61 30h70c10 0 15 5 15 15v610c0 10 -5 15 -15 15h-70c-10 0 -15 5 -15 15s5 15 15 15h200c10 0 15 -5 15 -15s-5 -15 -15 -15h-70c-10 0 -15 -5 -15 -15v-610c0 -10 5 -15 15 -15h70c10 0 15 -5 15 -15s-5 -15 -15 -15h-200c-10 0 -15 5 -15 15s5 15 15 15zM144 757
l-90 128c-3 3 -4 7 -4 10c0 4 3 7 8 10c3 3 7 5 10 5c4 0 8 -3 11 -9l89 -127c3 -3 4 -7 4 -10s-2 -7 -7 -10c-3 -2 -7 -3 -10 -3c-4 0 -8 2 -11 6z" />
    <glyph glyph-name="Iacute" unicode="&#xcd;" horiz-adv-x="322" 
d="M61 30h70c10 0 15 5 15 15v610c0 10 -5 15 -15 15h-70c-10 0 -15 5 -15 15s5 15 15 15h200c10 0 15 -5 15 -15s-5 -15 -15 -15h-70c-10 0 -15 -5 -15 -15v-610c0 -10 5 -15 15 -15h70c10 0 15 -5 15 -15s-5 -15 -15 -15h-200c-10 0 -15 5 -15 15s5 15 15 15zM144 774
l89 127c3 6 7 9 11 9c3 0 7 -2 10 -5c5 -3 8 -6 8 -10c0 -3 -1 -7 -4 -10l-90 -128c-3 -4 -7 -6 -11 -6c-3 0 -7 1 -10 3c-5 3 -7 7 -7 10s1 7 4 10z" />
    <glyph glyph-name="Icircumflex" unicode="&#xce;" horiz-adv-x="322" 
d="M36 766c-7 7 -7 14 0 21l107 109c6 6 12 9 17 9s11 -3 16 -8l110 -110c7 -7 7 -14 0 -21s-14 -7 -21 0l-96 95c-6 6 -12 6 -18 0l-94 -95c-7 -7 -14 -7 -21 0zM61 30h70c10 0 15 5 15 15v610c0 10 -5 15 -15 15h-70c-10 0 -15 5 -15 15s5 15 15 15h200c10 0 15 -5 15 -15
s-5 -15 -15 -15h-70c-10 0 -15 -5 -15 -15v-610c0 -10 5 -15 15 -15h70c10 0 15 -5 15 -15s-5 -15 -15 -15h-200c-10 0 -15 5 -15 15s5 15 15 15z" />
    <glyph glyph-name="Idieresis" unicode="&#xcf;" horiz-adv-x="322" 
d="M52 781c-15 16 -15 42 0 57c16 16 42 16 57 0c16 -15 16 -41 0 -57c-15 -15 -41 -15 -57 0zM61 30h70c10 0 15 5 15 15v610c0 10 -5 15 -15 15h-70c-10 0 -15 5 -15 15s5 15 15 15h200c10 0 15 -5 15 -15s-5 -15 -15 -15h-70c-10 0 -15 -5 -15 -15v-610
c0 -10 5 -15 15 -15h70c10 0 15 -5 15 -15s-5 -15 -15 -15h-200c-10 0 -15 5 -15 15s5 15 15 15zM212 781c-15 16 -15 42 0 57c16 16 42 16 57 0c16 -15 16 -41 0 -57c-15 -15 -41 -15 -57 0z" />
    <glyph glyph-name="Eth" unicode="&#xd0;" horiz-adv-x="734" 
d="M61 30h70c10 0 15 5 15 15v275c0 10 -5 15 -15 15h-70c-10 0 -15 5 -15 15s5 15 15 15h70c10 0 15 5 15 15v275c0 10 -5 15 -15 15h-70c-10 0 -15 5 -15 15s5 15 15 15h280c101 0 182 -33 243 -100s92 -150 92 -250s-31 -183 -92 -250s-142 -100 -243 -100h-280
c-10 0 -15 5 -15 15s5 15 15 15zM176 320v-275c0 -10 5 -15 15 -15h150c91 0 164 30 220 91c57 61 85 137 85 229s-28 168 -85 229c-56 61 -129 91 -220 91h-150c-10 0 -15 -5 -15 -15v-275c0 -10 5 -15 15 -15h70c10 0 15 -5 15 -15s-5 -15 -15 -15h-70
c-10 0 -15 -5 -15 -15z" />
    <glyph glyph-name="Ntilde" unicode="&#xd1;" horiz-adv-x="785" 
d="M61 30h70c10 0 15 5 15 15v610c0 10 -5 15 -15 15h-70c-10 0 -15 5 -15 15s5 15 15 15h110c11 0 19 -5 25 -15l410 -625c3 -5 10 -6 10 5v590c0 10 -5 15 -15 15h-60c-10 0 -15 5 -15 15s5 15 15 15h190c10 0 15 -5 15 -15s-5 -15 -15 -15h-70c-10 0 -15 -5 -15 -15v-610
c0 -10 5 -15 15 -15h70c10 0 15 -5 15 -15s-5 -15 -15 -15h-110c-11 0 -19 5 -25 15l-410 625c-3 5 -10 6 -10 -5v-590c0 -10 5 -15 15 -15h60c10 0 15 -5 15 -15s-5 -15 -15 -15h-190c-10 0 -15 5 -15 15s5 15 15 15zM261 785c0 57 29 90 70 90c65 0 64 -75 110 -75
c27 0 40 20 40 60c0 10 5 15 15 15s15 -5 15 -15c0 -59 -29 -90 -70 -90c-65 0 -64 75 -110 75c-27 0 -40 -20 -40 -60c0 -10 -5 -15 -15 -15s-15 5 -15 15z" />
    <glyph glyph-name="Ograve" unicode="&#xd2;" horiz-adv-x="786" 
d="M150 91c-61 68 -92 154 -92 259s31 191 92 258c61 68 142 102 243 102s182 -34 243 -102c61 -67 92 -153 92 -258s-31 -191 -92 -259c-61 -67 -142 -101 -243 -101s-182 34 -243 101zM172 587c-56 -62 -84 -141 -84 -237s28 -175 84 -237s130 -93 221 -93s165 31 221 93
s84 141 84 237s-28 175 -84 237s-130 93 -221 93s-165 -31 -221 -93zM386 767l-90 128c-3 3 -4 7 -4 10c0 4 3 7 8 10c3 3 7 5 10 5c4 0 8 -3 11 -9l89 -127c3 -3 4 -7 4 -10s-2 -7 -7 -10c-3 -2 -7 -3 -10 -3c-4 0 -8 2 -11 6z" />
    <glyph glyph-name="Oacute" unicode="&#xd3;" horiz-adv-x="786" 
d="M150 91c-61 68 -92 154 -92 259s31 191 92 258c61 68 142 102 243 102s182 -34 243 -102c61 -67 92 -153 92 -258s-31 -191 -92 -259c-61 -67 -142 -101 -243 -101s-182 34 -243 101zM172 587c-56 -62 -84 -141 -84 -237s28 -175 84 -237s130 -93 221 -93s165 31 221 93
s84 141 84 237s-28 175 -84 237s-130 93 -221 93s-165 -31 -221 -93zM376 784l89 127c3 6 7 9 11 9c3 0 7 -2 10 -5c5 -3 8 -6 8 -10c0 -3 -1 -7 -4 -10l-90 -128c-3 -4 -7 -6 -11 -6c-3 0 -7 1 -10 3c-5 3 -7 7 -7 10s1 7 4 10z" />
    <glyph glyph-name="Ocircumflex" unicode="&#xd4;" horiz-adv-x="786" 
d="M150 91c-61 68 -92 154 -92 259s31 191 92 258c61 68 142 102 243 102s182 -34 243 -102c61 -67 92 -153 92 -258s-31 -191 -92 -259c-61 -67 -142 -101 -243 -101s-182 34 -243 101zM172 587c-56 -62 -84 -141 -84 -237s28 -175 84 -237s130 -93 221 -93s165 31 221 93
s84 141 84 237s-28 175 -84 237s-130 93 -221 93s-165 -31 -221 -93zM268 787l107 109c6 6 12 9 17 9s11 -3 16 -8l110 -110c14 -14 -7 -35 -21 -21l-96 95c-6 6 -12 6 -18 0l-94 -95c-14 -14 -35 7 -21 21z" />
    <glyph glyph-name="Otilde" unicode="&#xd5;" horiz-adv-x="786" 
d="M150 91c-61 68 -92 154 -92 259s31 191 92 258c61 68 142 102 243 102s182 -34 243 -102c61 -67 92 -153 92 -258s-31 -191 -92 -259c-61 -67 -142 -101 -243 -101s-182 34 -243 101zM172 587c-56 -62 -84 -141 -84 -237s28 -175 84 -237s130 -93 221 -93s165 31 221 93
s84 141 84 237s-28 175 -84 237s-130 93 -221 93s-165 -31 -221 -93zM268 785c0 57 29 90 70 90c65 0 64 -75 110 -75c27 0 40 20 40 60c0 10 5 15 15 15s15 -5 15 -15c0 -59 -29 -90 -70 -90c-65 0 -64 75 -110 75c-27 0 -40 -20 -40 -60c0 -10 -5 -15 -15 -15
s-15 5 -15 15z" />
    <glyph glyph-name="Odieresis" unicode="&#xd6;" horiz-adv-x="786" 
d="M150 91c-61 68 -92 154 -92 259s31 191 92 258c61 68 142 102 243 102s182 -34 243 -102c61 -67 92 -153 92 -258s-31 -191 -92 -259c-61 -67 -142 -101 -243 -101s-182 34 -243 101zM172 587c-56 -62 -84 -141 -84 -237s28 -175 84 -237s130 -93 221 -93s165 31 221 93
s84 141 84 237s-28 175 -84 237s-130 93 -221 93s-165 -31 -221 -93zM284 791c-15 16 -15 42 0 57c16 16 42 16 57 0c16 -15 16 -41 0 -57c-15 -15 -41 -15 -57 0zM444 791c-15 16 -15 42 0 57c16 16 42 16 57 0c16 -15 16 -41 0 -57c-15 -15 -41 -15 -57 0z" />
    <glyph glyph-name="multiply" unicode="&#xd7;" horiz-adv-x="457" 
d="M195 361l-117 116c-7 7 -7 14 0 22c7 7 14 7 21 0l117 -117c7 -7 14 -7 21 0l120 120c7 7 14 7 22 0c7 -7 7 -14 0 -21l-121 -120c-7 -7 -7 -14 0 -21l117 -117c14 -14 -7 -35 -21 -21l-117 116c-7 7 -14 7 -21 0l-113 -113c-14 -14 -35 7 -21 21l113 113c7 8 7 15 0 22z
" />
    <glyph glyph-name="Oslash" unicode="&#xd8;" horiz-adv-x="786" 
d="M58 350c0 105 31 191 92 258c61 68 142 102 243 102c67 0 128 -17 182 -51l22 33c5 7 12 9 20 5c9 -7 11 -13 4 -20l-22 -34c86 -67 129 -165 129 -293c0 -105 -31 -191 -92 -259c-61 -67 -142 -101 -243 -101c-69 0 -130 17 -183 50l-21 -33c-5 -7 -12 -9 -20 -5
c-9 5 -11 12 -5 21l22 34c-85 69 -128 166 -128 293zM88 350c0 -115 38 -204 115 -267l356 550c-47 31 -103 47 -166 47c-91 0 -165 -31 -221 -93s-84 -141 -84 -237zM582 617l-355 -551c47 -31 102 -46 166 -46c91 0 165 31 221 93s84 141 84 237c0 116 -39 205 -116 267z
" />
    <glyph glyph-name="Ugrave" unicode="&#xd9;" horiz-adv-x="776" 
d="M43 700h190c10 0 15 -5 15 -15s-5 -15 -15 -15h-60c-10 0 -15 -5 -15 -15v-405c0 -69 22 -125 65 -167s98 -63 165 -63s122 21 165 63s65 98 65 167v405c0 10 -5 15 -15 15h-60c-10 0 -15 5 -15 15s5 15 15 15h190c10 0 15 -5 15 -15s-5 -15 -15 -15h-70
c-10 0 -15 -5 -15 -15v-405c0 -77 -25 -139 -74 -188c-49 -48 -111 -72 -186 -72s-138 24 -187 72c-49 49 -73 111 -73 188v405c0 10 -5 15 -15 15h-70c-10 0 -15 5 -15 15s5 15 15 15zM401 757l-90 128c-3 3 -4 7 -4 10c0 4 3 7 8 10c3 3 7 5 10 5c4 0 8 -3 11 -9l89 -127
c3 -3 4 -7 4 -10s-2 -7 -7 -10c-4 -2 -8 -3 -11 -3c-4 0 -7 2 -10 6z" />
    <glyph glyph-name="Uacute" unicode="&#xda;" horiz-adv-x="776" 
d="M43 700h190c10 0 15 -5 15 -15s-5 -15 -15 -15h-60c-10 0 -15 -5 -15 -15v-405c0 -69 22 -125 65 -167s98 -63 165 -63s122 21 165 63s65 98 65 167v405c0 10 -5 15 -15 15h-60c-10 0 -15 5 -15 15s5 15 15 15h190c10 0 15 -5 15 -15s-5 -15 -15 -15h-70
c-10 0 -15 -5 -15 -15v-405c0 -77 -25 -139 -74 -188c-49 -48 -111 -72 -186 -72s-138 24 -187 72c-49 49 -73 111 -73 188v405c0 10 -5 15 -15 15h-70c-10 0 -15 5 -15 15s5 15 15 15zM371 774l89 127c3 6 7 9 11 9c3 0 7 -2 10 -5c5 -3 8 -6 8 -10c0 -3 -1 -7 -4 -10
l-90 -128c-3 -4 -7 -6 -11 -6c-3 0 -7 1 -10 3c-5 3 -7 7 -7 10s1 7 4 10z" />
    <glyph glyph-name="Ucircumflex" unicode="&#xdb;" horiz-adv-x="776" 
d="M43 700h190c10 0 15 -5 15 -15s-5 -15 -15 -15h-60c-10 0 -15 -5 -15 -15v-405c0 -69 22 -125 65 -167s98 -63 165 -63s122 21 165 63s65 98 65 167v405c0 10 -5 15 -15 15h-60c-10 0 -15 5 -15 15s5 15 15 15h190c10 0 15 -5 15 -15s-5 -15 -15 -15h-70
c-10 0 -15 -5 -15 -15v-405c0 -77 -25 -139 -74 -188c-49 -48 -111 -72 -186 -72s-138 24 -187 72c-49 49 -73 111 -73 188v405c0 10 -5 15 -15 15h-70c-10 0 -15 5 -15 15s5 15 15 15zM263 787l107 109c6 6 12 9 17 9s11 -3 16 -8l110 -110c14 -14 -7 -35 -21 -21l-96 95
c-6 6 -12 6 -18 0l-94 -95c-14 -14 -35 7 -21 21z" />
    <glyph glyph-name="Udieresis" unicode="&#xdc;" horiz-adv-x="776" 
d="M43 700h190c10 0 15 -5 15 -15s-5 -15 -15 -15h-60c-10 0 -15 -5 -15 -15v-405c0 -69 22 -125 65 -167s98 -63 165 -63s122 21 165 63s65 98 65 167v405c0 10 -5 15 -15 15h-60c-10 0 -15 5 -15 15s5 15 15 15h190c10 0 15 -5 15 -15s-5 -15 -15 -15h-70
c-10 0 -15 -5 -15 -15v-405c0 -77 -25 -139 -74 -188c-49 -48 -111 -72 -186 -72s-138 24 -187 72c-49 49 -73 111 -73 188v405c0 10 -5 15 -15 15h-70c-10 0 -15 5 -15 15s5 15 15 15zM279 781c-15 16 -15 42 0 57c16 16 42 16 57 0c16 -15 16 -41 0 -57
c-15 -15 -41 -15 -57 0zM439 781c-15 16 -15 42 0 57c16 16 42 16 57 0c16 -15 16 -41 0 -57c-15 -15 -41 -15 -57 0z" />
    <glyph glyph-name="Yacute" unicode="&#xdd;" horiz-adv-x="627" 
d="M5 700h190c10 0 15 -5 15 -15s-5 -15 -15 -15h-60c-11 0 -15 -7 -10 -15l181 -316c5 -7 9 -7 14 0l182 316c5 8 1 15 -10 15h-60c-10 0 -15 5 -15 15s5 15 15 15h190c10 0 15 -5 15 -15s-5 -15 -15 -15h-60c-11 0 -19 -5 -25 -15l-208 -361v-249c0 -10 5 -15 15 -15h70
c10 0 15 -5 15 -15s-5 -15 -15 -15h-200c-10 0 -15 5 -15 15s5 15 15 15h70c10 0 15 5 15 15v247l-209 363c-6 10 -14 15 -25 15h-60c-10 0 -15 5 -15 15s5 15 15 15zM306 774l89 127c3 6 7 9 11 9c3 0 7 -2 10 -5c5 -3 8 -6 8 -10c0 -3 -1 -7 -4 -10l-90 -128
c-3 -4 -7 -6 -11 -6c-3 0 -7 1 -10 3c-5 3 -7 7 -7 10s1 7 4 10z" />
    <glyph glyph-name="Thorn" unicode="&#xde;" horiz-adv-x="610" 
d="M176 545v-390c0 -10 5 -15 15 -15h105c157 0 245 77 245 210s-88 210 -245 210h-105c-10 0 -15 -5 -15 -15zM176 95v-50c0 -10 5 -15 15 -15h70c10 0 15 -5 15 -15s-5 -15 -15 -15h-200c-10 0 -15 5 -15 15s5 15 15 15h70c10 0 15 5 15 15v610c0 10 -5 15 -15 15h-70
c-10 0 -15 5 -15 15s5 15 15 15h200c10 0 15 -5 15 -15s-5 -15 -15 -15h-70c-10 0 -15 -5 -15 -15v-50c0 -10 5 -15 15 -15h105c86 0 153 -22 202 -65s73 -101 73 -175s-24 -132 -73 -175s-116 -65 -202 -65h-105c-10 0 -15 -5 -15 -15z" />
    <glyph glyph-name="germandbls" unicode="&#xdf;" horiz-adv-x="641" 
d="M51 30h70c10 0 15 5 15 15v410c0 10 -5 15 -15 15h-70c-10 0 -15 5 -15 15s5 15 15 15h70c10 0 15 5 15 15v10c0 119 75 185 180 185c49 0 90 -13 122 -40s48 -60 48 -100c0 -89 -115 -97 -115 -160c0 -107 240 -115 240 -280c0 -39 -16 -72 -47 -99s-72 -41 -123 -41
c-83 0 -150 33 -200 100c-8 9 -7 17 2 23c8 5 14 5 19 -2c44 -61 104 -91 179 -91c88 0 140 47 140 110c0 47 -27 86 -63 110l-57 38l-58 35c-35 21 -62 57 -62 97c0 82 115 91 115 160c0 65 -56 110 -140 110c-93 0 -150 -52 -150 -155v-510c0 -10 -5 -15 -15 -15h-100
c-10 0 -15 5 -15 15s5 15 15 15z" />
    <glyph glyph-name="agrave" unicode="&#xe0;" 
d="M260 577l-90 128c-3 3 -4 7 -4 10c0 4 3 7 8 10c3 3 7 5 10 5c4 0 8 -3 11 -9l89 -127c3 -3 4 -7 4 -10s-2 -7 -7 -10c-3 -2 -7 -3 -10 -3c-4 0 -8 2 -11 6zM421 155v90c0 10 -5 15 -15 15h-165c-116 0 -170 -51 -170 -120c0 -71 53 -120 150 -120c55 0 104 22 149 67
c19 19 36 41 51 68zM265 510c56 0 101 -16 135 -48c34 -31 51 -70 51 -117v-300c0 -10 5 -15 15 -15h70c10 0 15 -5 15 -15s-5 -15 -15 -15h-100c-10 0 -15 5 -15 15v56c0 13 -5 21 -16 10c-18 -23 -42 -43 -73 -62c-33 -19 -70 -29 -111 -29c-117 0 -180 65 -180 150
c0 83 75 150 200 150h165c10 0 15 5 15 15v40c0 76 -64 135 -156 135c-80 0 -135 -30 -162 -51c-9 -7 -16 -6 -21 2c-6 8 -5 15 2 20c36 29 96 59 181 59z" />
    <glyph glyph-name="aacute" unicode="&#xe1;" 
d="M250 594l89 127c3 6 7 9 11 9c3 0 7 -2 10 -5c5 -3 8 -6 8 -10c0 -3 -1 -7 -4 -10l-90 -128c-3 -4 -7 -6 -11 -6c-3 0 -7 1 -10 3c-5 3 -7 7 -7 10s1 7 4 10zM421 155v90c0 10 -5 15 -15 15h-165c-116 0 -170 -51 -170 -120c0 -71 53 -120 150 -120c55 0 104 22 149 67
c19 19 36 41 51 68zM265 510c56 0 101 -16 135 -48c34 -31 51 -70 51 -117v-300c0 -10 5 -15 15 -15h70c10 0 15 -5 15 -15s-5 -15 -15 -15h-100c-10 0 -15 5 -15 15v56c0 13 -5 21 -16 10c-18 -23 -42 -43 -73 -62c-33 -19 -70 -29 -111 -29c-117 0 -180 65 -180 150
c0 83 75 150 200 150h165c10 0 15 5 15 15v40c0 76 -64 135 -156 135c-80 0 -135 -30 -162 -51c-9 -7 -16 -6 -21 2c-6 8 -5 15 2 20c36 29 96 59 181 59z" />
    <glyph glyph-name="acircumflex" unicode="&#xe2;" 
d="M142 587l107 109c6 6 12 9 17 9s11 -3 16 -8l110 -110c13 -15 -7 -35 -21 -21l-96 95c-6 6 -12 6 -18 0l-94 -95c-15 -13 -34 6 -21 21zM421 155v90c0 10 -5 15 -15 15h-165c-116 0 -170 -51 -170 -120c0 -71 53 -120 150 -120c55 0 104 22 149 67c19 19 36 41 51 68z
M265 510c56 0 101 -16 135 -48c34 -31 51 -70 51 -117v-300c0 -10 5 -15 15 -15h70c10 0 15 -5 15 -15s-5 -15 -15 -15h-100c-10 0 -15 5 -15 15v56c0 13 -5 21 -16 10c-18 -23 -42 -43 -73 -62c-33 -19 -70 -29 -111 -29c-117 0 -180 65 -180 150c0 83 75 150 200 150h165
c10 0 15 5 15 15v40c0 76 -64 135 -156 135c-80 0 -135 -30 -162 -51c-9 -7 -16 -6 -21 2c-6 8 -5 15 2 20c36 29 96 59 181 59z" />
    <glyph glyph-name="atilde" unicode="&#xe3;" 
d="M142 585c0 57 29 90 70 90c65 0 64 -75 110 -75c27 0 40 20 40 60c0 10 5 15 15 15s15 -5 15 -15c0 -59 -29 -90 -70 -90c-65 0 -64 75 -110 75c-27 0 -40 -20 -40 -60c0 -10 -5 -15 -15 -15s-15 5 -15 15zM421 155v90c0 10 -5 15 -15 15h-165c-116 0 -170 -51 -170 -120
c0 -71 53 -120 150 -120c55 0 104 22 149 67c19 19 36 41 51 68zM265 510c56 0 101 -16 135 -48c34 -31 51 -70 51 -117v-300c0 -10 5 -15 15 -15h70c10 0 15 -5 15 -15s-5 -15 -15 -15h-100c-10 0 -15 5 -15 15v56c0 13 -5 21 -16 10c-18 -23 -42 -43 -73 -62
c-33 -19 -70 -29 -111 -29c-117 0 -180 65 -180 150c0 83 75 150 200 150h165c10 0 15 5 15 15v40c0 76 -64 135 -156 135c-80 0 -135 -30 -162 -51c-9 -7 -16 -6 -21 2c-6 8 -5 15 2 20c36 29 96 59 181 59z" />
    <glyph glyph-name="adieresis" unicode="&#xe4;" 
d="M168 581c-15 16 -15 42 0 57c16 16 42 16 57 0c16 -15 16 -41 0 -57c-15 -15 -41 -15 -57 0zM328 581c-15 16 -15 42 0 57c16 16 42 16 57 0c16 -15 16 -41 0 -57c-15 -15 -41 -15 -57 0zM421 155v90c0 10 -5 15 -15 15h-165c-116 0 -170 -51 -170 -120
c0 -71 53 -120 150 -120c55 0 104 22 149 67c19 19 36 41 51 68zM265 510c56 0 101 -16 135 -48c34 -31 51 -70 51 -117v-300c0 -10 5 -15 15 -15h70c10 0 15 -5 15 -15s-5 -15 -15 -15h-100c-10 0 -15 5 -15 15v56c0 13 -5 21 -16 10c-18 -23 -42 -43 -73 -62
c-33 -19 -70 -29 -111 -29c-117 0 -180 65 -180 150c0 83 75 150 200 150h165c10 0 15 5 15 15v40c0 76 -64 135 -156 135c-80 0 -135 -30 -162 -51c-9 -7 -16 -6 -21 2c-6 8 -5 15 2 20c36 29 96 59 181 59z" />
    <glyph glyph-name="aring" unicode="&#xe5;" 
d="M209 583c-29 31 -29 83 0 114c15 15 35 23 58 23s42 -8 57 -23c31 -31 31 -83 0 -114c-15 -15 -34 -23 -57 -23s-43 8 -58 23zM230 676c-17 -17 -17 -54 0 -73c19 -17 56 -17 73 0c19 19 19 56 0 73c-17 19 -54 19 -73 0zM421 155v90c0 10 -5 15 -15 15h-165
c-116 0 -170 -51 -170 -120c0 -71 53 -120 150 -120c55 0 104 22 149 67c19 19 36 41 51 68zM265 510c56 0 101 -16 135 -48c34 -31 51 -70 51 -117v-300c0 -10 5 -15 15 -15h70c10 0 15 -5 15 -15s-5 -15 -15 -15h-100c-10 0 -15 5 -15 15v56c0 13 -5 21 -16 10
c-18 -23 -42 -43 -73 -62c-33 -19 -70 -29 -111 -29c-117 0 -180 65 -180 150c0 83 75 150 200 150h165c10 0 15 5 15 15v40c0 76 -64 135 -156 135c-80 0 -135 -30 -162 -51c-9 -7 -16 -6 -21 2c-6 8 -5 15 2 20c36 29 96 59 181 59z" />
    <glyph glyph-name="ae" unicode="&#xe6;" horiz-adv-x="937" 
d="M432 155v90c0 10 -5 15 -15 15h-175c-113 0 -170 -40 -170 -120s53 -120 160 -120c55 0 104 22 149 67c19 19 36 41 51 68zM466 305c-2 -10 3 -15 14 -15h367c10 0 15 5 15 15c0 44 -20 84 -59 120c-39 37 -86 55 -141 55c-58 0 -106 -21 -144 -64
c-28 -32 -45 -60 -52 -111zM266 510c108 0 176 -54 192 -130c40 81 115 130 204 130c65 0 119 -21 163 -63c45 -42 67 -89 67 -142v-15c0 -20 -10 -30 -30 -30h-385c-10 0 -15 -5 -15 -15c0 -60 19 -119 56 -162c37 -42 85 -63 144 -63c104 0 153 45 183 72c9 8 15 3 22 -4
c7 -8 6 -15 -1 -21c-35 -32 -95 -77 -204 -77c-96 0 -174 54 -209 143c-23 -41 -55 -75 -96 -102s-83 -41 -125 -41c-129 0 -190 54 -190 150c0 93 71 150 200 150h175c10 0 15 5 15 15v40c0 76 -62 135 -166 135c-80 0 -135 -30 -162 -51c-9 -7 -16 -6 -21 2
c-6 8 -5 15 2 20c36 29 96 59 181 59z" />
    <glyph glyph-name="ccedilla" unicode="&#xe7;" horiz-adv-x="560" 
d="M274 -150c47 0 70 13 70 40c0 23 -17 40 -50 40h-15c-10 0 -15 5 -15 15v55c0 10 5 15 15 15s15 -5 15 -15v-40c49 0 80 -29 80 -70c0 -43 -32 -70 -100 -70c-10 0 -15 5 -15 15s5 15 15 15zM286 -10c-71 0 -127 24 -170 72c-43 49 -65 111 -65 188s21 139 63 187
c42 49 94 73 157 73c66 0 124 -25 174 -75c12 -11 16 -3 16 10v40c0 10 5 15 15 15s15 -5 15 -15v-160c0 -10 -5 -15 -15 -15s-15 5 -15 15v50c-16 21 -33 38 -50 52c-43 35 -90 53 -140 53c-54 0 -99 -21 -136 -64c-36 -43 -54 -99 -54 -166c0 -70 19 -126 57 -168
c38 -41 87 -62 148 -62c104 0 153 45 183 72c9 8 15 3 22 -4c7 -8 6 -15 -1 -21c-35 -32 -95 -77 -204 -77z" />
    <glyph glyph-name="egrave" unicode="&#xe8;" horiz-adv-x="567" 
d="M275 577l-90 128c-3 3 -4 7 -4 10c0 4 3 7 8 10c3 3 7 5 10 5c4 0 8 -3 11 -9l89 -127c3 -3 4 -7 4 -10s-2 -7 -7 -10c-4 -2 -8 -3 -11 -3c-4 0 -7 2 -10 6zM287 20c104 0 153 45 183 72c9 8 15 3 22 -4c7 -8 6 -15 -1 -21c-35 -32 -95 -77 -204 -77
c-71 0 -127 24 -170 72c-43 49 -65 112 -65 188s22 139 65 188c43 48 99 72 170 72c69 0 125 -22 169 -66s66 -97 66 -159v-15c0 -20 -10 -30 -30 -30h-394c-11 0 -16 -5 -15 -15c4 -58 23 -106 56 -143c38 -41 87 -62 148 -62zM84 285c-1 -10 3 -15 14 -15h379
c10 0 15 5 15 15c0 53 -20 99 -59 137c-39 39 -87 58 -146 58c-61 0 -110 -21 -148 -64c-31 -35 -50 -79 -55 -131z" />
    <glyph glyph-name="eacute" unicode="&#xe9;" horiz-adv-x="567" 
d="M275 594l89 127c3 6 7 9 11 9c3 0 7 -2 10 -5c5 -3 8 -6 8 -10c0 -3 -1 -7 -4 -10l-90 -128c-3 -4 -7 -6 -11 -6c-3 0 -7 1 -10 3c-5 3 -7 7 -7 10s1 7 4 10zM287 20c104 0 153 45 183 72c9 8 15 3 22 -4c7 -8 6 -15 -1 -21c-35 -32 -95 -77 -204 -77
c-71 0 -127 24 -170 72c-43 49 -65 112 -65 188s22 139 65 188c43 48 99 72 170 72c69 0 125 -22 169 -66s66 -97 66 -159v-15c0 -20 -10 -30 -30 -30h-394c-11 0 -16 -5 -15 -15c4 -58 23 -106 56 -143c38 -41 87 -62 148 -62zM84 285c-1 -10 3 -15 14 -15h379
c10 0 15 5 15 15c0 53 -20 99 -59 137c-39 39 -87 58 -146 58c-61 0 -110 -21 -148 -64c-31 -35 -50 -79 -55 -131z" />
    <glyph glyph-name="ecircumflex" unicode="&#xea;" horiz-adv-x="567" 
d="M157 587l107 109c6 6 12 9 17 9s11 -3 16 -8l110 -110c14 -14 -7 -35 -21 -21l-96 95c-6 6 -12 6 -18 0l-94 -95c-14 -14 -35 7 -21 21zM287 20c104 0 153 45 183 72c9 8 15 3 22 -4c7 -8 6 -15 -1 -21c-35 -32 -95 -77 -204 -77c-71 0 -127 24 -170 72
c-43 49 -65 112 -65 188s22 139 65 188c43 48 99 72 170 72c69 0 125 -22 169 -66s66 -97 66 -159v-15c0 -20 -10 -30 -30 -30h-394c-11 0 -16 -5 -15 -15c4 -58 23 -106 56 -143c38 -41 87 -62 148 -62zM84 285c-1 -10 3 -15 14 -15h379c10 0 15 5 15 15
c0 53 -20 99 -59 137c-39 39 -87 58 -146 58c-61 0 -110 -21 -148 -64c-31 -35 -50 -79 -55 -131z" />
    <glyph glyph-name="edieresis" unicode="&#xeb;" horiz-adv-x="567" 
d="M173 591c-15 16 -15 42 0 57c16 16 42 16 57 0c16 -15 16 -41 0 -57c-15 -15 -41 -15 -57 0zM333 591c-15 16 -15 42 0 57c16 16 42 16 57 0c16 -15 16 -41 0 -57c-15 -15 -41 -15 -57 0zM287 20c104 0 153 45 183 72c9 8 15 3 22 -4c7 -8 6 -15 -1 -21
c-35 -32 -95 -77 -204 -77c-71 0 -127 24 -170 72c-43 49 -65 112 -65 188s22 139 65 188c43 48 99 72 170 72c69 0 125 -22 169 -66s66 -97 66 -159v-15c0 -20 -10 -30 -30 -30h-394c-11 0 -16 -5 -15 -15c4 -58 23 -106 56 -143c38 -41 87 -62 148 -62zM84 285
c-1 -10 3 -15 14 -15h379c10 0 15 5 15 15c0 53 -20 99 -59 137c-39 39 -87 58 -146 58c-61 0 -110 -21 -148 -64c-31 -35 -50 -79 -55 -131z" />
    <glyph glyph-name="igrave" unicode="&#xec;" horiz-adv-x="286" 
d="M52 30h70c10 0 15 5 15 15v410c0 10 -5 15 -15 15h-70c-10 0 -15 5 -15 15s5 15 15 15h100c10 0 15 -5 15 -15v-440c0 -10 5 -15 15 -15h70c10 0 15 -5 15 -15s-5 -15 -15 -15h-200c-10 0 -15 5 -15 15s5 15 15 15zM135 577l-90 128c-3 3 -4 7 -4 10c0 4 3 7 8 10
c3 3 7 5 10 5c4 0 8 -3 11 -9l89 -127c3 -3 4 -7 4 -10s-2 -7 -7 -10c-4 -2 -8 -3 -11 -3c-4 0 -7 2 -10 6z" />
    <glyph glyph-name="iacute" unicode="&#xed;" horiz-adv-x="286" 
d="M52 30h70c10 0 15 5 15 15v410c0 10 -5 15 -15 15h-70c-10 0 -15 5 -15 15s5 15 15 15h100c10 0 15 -5 15 -15v-440c0 -10 5 -15 15 -15h70c10 0 15 -5 15 -15s-5 -15 -15 -15h-200c-10 0 -15 5 -15 15s5 15 15 15zM125 594l89 127c3 6 7 9 11 9c3 0 7 -2 10 -5
c5 -3 8 -6 8 -10c0 -3 -1 -7 -4 -10l-90 -128c-3 -4 -7 -6 -11 -6c-3 0 -7 1 -10 3c-5 3 -7 7 -7 10s1 7 4 10z" />
    <glyph glyph-name="icircumflex" unicode="&#xee;" horiz-adv-x="286" 
d="M17 566c-7 7 -7 14 0 21l107 109c6 6 12 9 17 9s11 -3 16 -8l110 -110c7 -7 7 -14 0 -21s-14 -7 -21 0l-96 95c-6 6 -12 6 -18 0l-94 -95c-7 -7 -14 -7 -21 0zM52 30h70c10 0 15 5 15 15v410c0 10 -5 15 -15 15h-70c-10 0 -15 5 -15 15s5 15 15 15h100c10 0 15 -5 15 -15
v-440c0 -10 5 -15 15 -15h70c10 0 15 -5 15 -15s-5 -15 -15 -15h-200c-10 0 -15 5 -15 15s5 15 15 15z" />
    <glyph glyph-name="idieresis" unicode="&#xef;" horiz-adv-x="286" 
d="M33 591c-15 16 -15 42 0 57c16 16 42 16 57 0c16 -15 16 -41 0 -57c-15 -15 -41 -15 -57 0zM52 30h70c10 0 15 5 15 15v410c0 10 -5 15 -15 15h-70c-10 0 -15 5 -15 15s5 15 15 15h100c10 0 15 -5 15 -15v-440c0 -10 5 -15 15 -15h70c10 0 15 -5 15 -15s-5 -15 -15 -15
h-200c-10 0 -15 5 -15 15s5 15 15 15zM193 591c-15 16 -15 42 0 57c16 16 42 16 57 0c16 -15 16 -41 0 -57c-15 -15 -41 -15 -57 0z" />
    <glyph glyph-name="eth" unicode="&#xf0;" horiz-adv-x="627" 
d="M509 415c-4 10 -11 15 -20 15h-163c-161 0 -242 -76 -242 -195c0 -136 82 -215 215 -215c67 0 121 25 162 74c42 49 63 117 63 206c0 40 -4 78 -15 115zM489 475c-23 55 -56 103 -98 143c-8 6 -15 6 -21 -1l-56 -66c-6 -8 -13 -9 -21 -2s-8 15 -1 22l55 65c7 7 7 13 0 17
c-61 45 -129 67 -203 67c-10 0 -15 5 -15 15s5 15 15 15c77 0 150 -24 219 -71c9 -7 16 -6 22 2l62 74c3 4 6 6 10 6s8 -1 11 -4c7 -7 8 -14 3 -21l-62 -74c-6 -7 -5 -14 2 -21c89 -88 143 -212 143 -341c0 -93 -23 -168 -70 -225c-46 -57 -108 -85 -185 -85
c-75 0 -135 22 -179 66s-66 104 -66 179c0 133 99 225 267 225h155c12 0 16 5 13 15z" />
    <glyph glyph-name="ntilde" unicode="&#xf1;" horiz-adv-x="668" 
d="M51 30h70c10 0 15 5 15 15v410c0 10 -5 15 -15 15h-70c-10 0 -15 5 -15 15s5 15 15 15h100c10 0 15 -5 15 -15v-56c0 -13 5 -21 16 -10c54 61 114 91 179 91c123 0 195 -71 195 -200v-265c0 -10 5 -15 15 -15h70c10 0 15 -5 15 -15s-5 -15 -15 -15h-190
c-10 0 -15 5 -15 15s5 15 15 15h60c10 0 15 5 15 15v265c0 113 -62 170 -165 170c-50 0 -98 -23 -143 -68c-20 -20 -37 -42 -52 -67v-300c0 -10 5 -15 15 -15h60c10 0 15 -5 15 -15s-5 -15 -15 -15h-190c-10 0 -15 5 -15 15s5 15 15 15zM221 585c0 57 29 90 70 90
c65 0 64 -75 110 -75c27 0 40 20 40 60c0 10 5 15 15 15s15 -5 15 -15c0 -59 -29 -90 -70 -90c-65 0 -64 75 -110 75c-27 0 -40 -20 -40 -60c0 -10 -5 -15 -15 -15s-15 5 -15 15z" />
    <glyph glyph-name="ograve" unicode="&#xf2;" horiz-adv-x="592" 
d="M119 62c-45 48 -68 111 -68 188s23 140 68 188s104 72 177 72s132 -24 177 -72s68 -111 68 -188s-23 -140 -68 -188s-104 -72 -177 -72s-132 24 -177 72zM81 250c0 -70 19 -126 58 -168c39 -41 92 -62 157 -62s117 21 156 62c39 42 59 98 59 168c0 69 -20 125 -59 167
s-91 63 -156 63s-117 -21 -156 -63s-59 -98 -59 -167zM289 577l-90 128c-3 3 -4 7 -4 10c0 4 3 7 8 10c3 3 7 5 10 5c4 0 8 -3 11 -9l89 -127c3 -3 4 -7 4 -10s-2 -7 -7 -10c-4 -2 -8 -3 -11 -3c-4 0 -7 2 -10 6z" />
    <glyph glyph-name="oacute" unicode="&#xf3;" horiz-adv-x="592" 
d="M119 62c-45 48 -68 111 -68 188s23 140 68 188s104 72 177 72s132 -24 177 -72s68 -111 68 -188s-23 -140 -68 -188s-104 -72 -177 -72s-132 24 -177 72zM81 250c0 -70 19 -126 58 -168c39 -41 92 -62 157 -62s117 21 156 62c39 42 59 98 59 168c0 69 -20 125 -59 167
s-91 63 -156 63s-117 -21 -156 -63s-59 -98 -59 -167zM279 594l89 127c3 6 7 9 11 9c3 0 7 -2 10 -5c5 -3 8 -6 8 -10c0 -3 -1 -7 -4 -10l-90 -128c-3 -4 -7 -6 -11 -6c-3 0 -7 1 -10 3c-5 3 -7 7 -7 10s1 7 4 10z" />
    <glyph glyph-name="ocircumflex" unicode="&#xf4;" horiz-adv-x="592" 
d="M119 62c-45 48 -68 111 -68 188s23 140 68 188s104 72 177 72s132 -24 177 -72s68 -111 68 -188s-23 -140 -68 -188s-104 -72 -177 -72s-132 24 -177 72zM81 250c0 -70 19 -126 58 -168c39 -41 92 -62 157 -62s117 21 156 62c39 42 59 98 59 168c0 69 -20 125 -59 167
s-91 63 -156 63s-117 -21 -156 -63s-59 -98 -59 -167zM171 587l107 109c6 6 12 9 17 9s11 -3 16 -8l110 -110c14 -14 -7 -35 -21 -21l-96 95c-6 6 -12 6 -18 0l-94 -95c-14 -14 -35 7 -21 21z" />
    <glyph glyph-name="otilde" unicode="&#xf5;" horiz-adv-x="592" 
d="M119 62c-45 48 -68 111 -68 188s23 140 68 188s104 72 177 72s132 -24 177 -72s68 -111 68 -188s-23 -140 -68 -188s-104 -72 -177 -72s-132 24 -177 72zM81 250c0 -70 19 -126 58 -168c39 -41 92 -62 157 -62s117 21 156 62c39 42 59 98 59 168c0 69 -20 125 -59 167
s-91 63 -156 63s-117 -21 -156 -63s-59 -98 -59 -167zM171 585c0 57 29 90 70 90c65 0 64 -75 110 -75c27 0 40 20 40 60c0 10 5 15 15 15s15 -5 15 -15c0 -59 -29 -90 -70 -90c-65 0 -64 75 -110 75c-27 0 -40 -20 -40 -60c0 -10 -5 -15 -15 -15s-15 5 -15 15z" />
    <glyph glyph-name="odieresis" unicode="&#xf6;" horiz-adv-x="592" 
d="M119 62c-45 48 -68 111 -68 188s23 140 68 188s104 72 177 72s132 -24 177 -72s68 -111 68 -188s-23 -140 -68 -188s-104 -72 -177 -72s-132 24 -177 72zM81 250c0 -70 19 -126 58 -168c39 -41 92 -62 157 -62s117 21 156 62c39 42 59 98 59 168c0 69 -20 125 -59 167
s-91 63 -156 63s-117 -21 -156 -63s-59 -98 -59 -167zM187 591c-15 16 -15 42 0 57c16 16 42 16 57 0c16 -15 16 -41 0 -57c-15 -15 -41 -15 -57 0zM347 591c-15 16 -15 42 0 57c16 16 42 16 57 0c16 -15 16 -41 0 -57c-15 -15 -41 -15 -57 0z" />
    <glyph glyph-name="divide" unicode="&#xf7;" horiz-adv-x="581" 
d="M95 335h390c10 0 15 -5 15 -15s-5 -15 -15 -15h-390c-10 0 -15 5 -15 15s5 15 15 15zM248 123c-17 19 -17 56 0 73c19 19 56 19 73 0c19 -17 19 -54 0 -73c-17 -17 -54 -17 -73 0zM248 443c-17 19 -17 56 0 73c19 19 56 19 73 0c19 -17 19 -54 0 -73
c-17 -17 -54 -17 -73 0z" />
    <glyph glyph-name="oslash" unicode="&#xf8;" horiz-adv-x="592" 
d="M51 250c0 77 23 140 68 188s104 72 177 72c47 0 89 -11 128 -33l17 26c3 5 7 7 12 7c3 0 5 -1 8 -2c9 -7 11 -13 4 -20l-18 -27c63 -49 94 -120 94 -211c0 -77 -23 -140 -68 -188s-104 -72 -177 -72c-48 0 -91 11 -129 33l-17 -26c-3 -5 -7 -7 -12 -7c-3 0 -5 1 -8 2
c-9 5 -11 12 -5 21l17 27c-61 48 -91 118 -91 210zM81 250c0 -81 26 -143 77 -185l250 387c-33 19 -70 28 -112 28c-65 0 -117 -21 -156 -63s-59 -98 -59 -167zM432 436l-249 -388c33 -19 70 -28 113 -28c65 0 117 21 156 62c39 42 59 98 59 168c0 84 -26 146 -79 186z" />
    <glyph glyph-name="ugrave" unicode="&#xf9;" horiz-adv-x="650" 
d="M26 500h100c10 0 15 -5 15 -15v-295c0 -113 62 -170 165 -170c50 0 97 22 142 67c20 21 38 43 53 68v300c0 10 -5 15 -15 15h-70c-10 0 -15 5 -15 15s5 15 15 15h100c10 0 15 -5 15 -15v-440c0 -10 5 -15 15 -15h70c10 0 15 -5 15 -15s-5 -15 -15 -15h-100
c-10 0 -15 5 -15 15v56c0 13 -5 21 -16 10c-54 -61 -114 -91 -179 -91c-123 0 -195 71 -195 200v265c0 10 -5 15 -15 15h-70c-10 0 -15 5 -15 15s5 15 15 15zM314 557l-90 128c-3 3 -4 7 -4 10c0 4 3 7 8 10c3 3 7 5 10 5c4 0 8 -3 11 -9l89 -127c3 -3 4 -7 4 -10
s-2 -7 -7 -10c-3 -2 -7 -3 -10 -3c-4 0 -8 2 -11 6z" />
    <glyph glyph-name="uacute" unicode="&#xfa;" horiz-adv-x="650" 
d="M26 500h100c10 0 15 -5 15 -15v-295c0 -113 62 -170 165 -170c50 0 97 22 142 67c20 21 38 43 53 68v300c0 10 -5 15 -15 15h-70c-10 0 -15 5 -15 15s5 15 15 15h100c10 0 15 -5 15 -15v-440c0 -10 5 -15 15 -15h70c10 0 15 -5 15 -15s-5 -15 -15 -15h-100
c-10 0 -15 5 -15 15v56c0 13 -5 21 -16 10c-54 -61 -114 -91 -179 -91c-123 0 -195 71 -195 200v265c0 10 -5 15 -15 15h-70c-10 0 -15 5 -15 15s5 15 15 15zM274 574l89 127c3 6 7 9 11 9c3 0 7 -2 10 -5c5 -3 8 -6 8 -10c0 -3 -1 -7 -4 -10l-90 -128c-3 -4 -7 -6 -11 -6
c-3 0 -7 1 -10 3c-5 3 -7 7 -7 10s1 7 4 10z" />
    <glyph glyph-name="ucircumflex" unicode="&#xfb;" horiz-adv-x="650" 
d="M26 500h100c10 0 15 -5 15 -15v-295c0 -113 62 -170 165 -170c50 0 97 22 142 67c20 21 38 43 53 68v300c0 10 -5 15 -15 15h-70c-10 0 -15 5 -15 15s5 15 15 15h100c10 0 15 -5 15 -15v-440c0 -10 5 -15 15 -15h70c10 0 15 -5 15 -15s-5 -15 -15 -15h-100
c-10 0 -15 5 -15 15v56c0 13 -5 21 -16 10c-54 -61 -114 -91 -179 -91c-123 0 -195 71 -195 200v265c0 10 -5 15 -15 15h-70c-10 0 -15 5 -15 15s5 15 15 15zM186 587l107 109c6 6 12 9 17 9s11 -3 16 -8l110 -110c13 -15 -7 -35 -21 -21l-96 95c-6 6 -12 6 -18 0l-94 -95
c-14 -14 -34 6 -21 21z" />
    <glyph glyph-name="udieresis" unicode="&#xfc;" horiz-adv-x="650" 
d="M26 500h100c10 0 15 -5 15 -15v-295c0 -113 62 -170 165 -170c50 0 97 22 142 67c20 21 38 43 53 68v300c0 10 -5 15 -15 15h-70c-10 0 -15 5 -15 15s5 15 15 15h100c10 0 15 -5 15 -15v-440c0 -10 5 -15 15 -15h70c10 0 15 -5 15 -15s-5 -15 -15 -15h-100
c-10 0 -15 5 -15 15v56c0 13 -5 21 -16 10c-54 -61 -114 -91 -179 -91c-123 0 -195 71 -195 200v265c0 10 -5 15 -15 15h-70c-10 0 -15 5 -15 15s5 15 15 15zM202 581c-15 16 -15 42 0 57c16 16 42 16 57 0c16 -15 16 -41 0 -57c-15 -15 -41 -15 -57 0zM362 581
c-15 16 -15 42 0 57c16 16 42 16 57 0c16 -15 16 -41 0 -57c-15 -15 -41 -15 -57 0z" />
    <glyph glyph-name="yacute" unicode="&#xfd;" horiz-adv-x="617" 
d="M291 574l89 127c3 6 7 9 11 9c3 0 7 -2 10 -5c5 -3 8 -6 8 -10c0 -3 -1 -7 -4 -10l-90 -128c-3 -4 -7 -6 -11 -6c-3 0 -7 1 -10 3c-5 3 -7 7 -7 10s1 7 4 10zM159 -210c-63 0 -105 33 -124 57c-7 7 -10 15 -2 23c7 7 14 7 21 0c23 -23 56 -50 105 -50c64 0 98 44 137 145
l10 26c3 9 3 17 0 24l-207 440c-5 10 -12 15 -20 15h-65c-10 0 -15 5 -15 15s5 15 15 15h190c10 0 15 -5 15 -15s-5 -15 -15 -15h-62c-12 0 -15 -5 -10 -15l189 -395c3 -9 7 -9 11 0l153 395c5 10 1 15 -10 15h-62c-10 0 -15 5 -15 15s5 15 15 15h190c10 0 15 -5 15 -15
s-5 -15 -15 -15h-65c-9 0 -15 -5 -20 -15l-190 -490c-48 -120 -84 -175 -169 -175z" />
    <glyph glyph-name="thorn" unicode="&#xfe;" horiz-adv-x="600" 
d="M142 30h135c153 0 240 78 240 215c0 153 -77 235 -190 235c-54 0 -104 -23 -149 -68c-21 -21 -38 -44 -51 -67v-300c0 -10 5 -15 15 -15zM277 0h-135c-10 0 -15 -5 -15 -15v-140c0 -10 5 -15 15 -15h80c10 0 15 -5 15 -15s-5 -15 -15 -15h-210c-10 0 -15 5 -15 15
s5 15 15 15h70c10 0 15 5 15 15v810c0 10 -5 15 -15 15h-70c-10 0 -15 5 -15 15s5 15 15 15h100c10 0 15 -5 15 -15v-256c0 -13 5 -21 16 -10c17 21 41 42 72 61c33 20 70 30 112 30c67 0 120 -23 160 -70s60 -112 60 -195c0 -152 -100 -245 -270 -245z" />
    <glyph glyph-name="ydieresis" unicode="&#xff;" horiz-adv-x="617" 
d="M194 571c-15 16 -15 42 0 57c16 16 42 16 57 0c16 -15 16 -41 0 -57c-15 -15 -41 -15 -57 0zM354 571c-15 16 -15 42 0 57c16 16 42 16 57 0c16 -15 16 -41 0 -57c-15 -15 -41 -15 -57 0zM159 -210c-63 0 -105 33 -124 57c-7 7 -10 15 -2 23c7 7 14 7 21 0
c23 -23 56 -50 105 -50c64 0 98 44 137 145l10 26c3 9 3 17 0 24l-207 440c-5 10 -12 15 -20 15h-65c-10 0 -15 5 -15 15s5 15 15 15h190c10 0 15 -5 15 -15s-5 -15 -15 -15h-62c-12 0 -15 -5 -10 -15l189 -395c3 -9 7 -9 11 0l153 395c5 10 1 15 -10 15h-62
c-10 0 -15 5 -15 15s5 15 15 15h190c10 0 15 -5 15 -15s-5 -15 -15 -15h-65c-9 0 -15 -5 -20 -15l-190 -490c-48 -120 -84 -175 -169 -175z" />
    <glyph glyph-name="OE" unicode="&#x152;" horiz-adv-x="923" 
d="M393 700h455c10 0 15 -5 15 -15v-120c0 -10 -5 -15 -15 -15s-15 5 -15 15v90c0 10 -5 15 -15 15h-315c-10 0 -15 -5 -15 -15v-270c0 -10 5 -15 15 -15h225c10 0 15 5 15 15v50c0 10 5 15 15 15s15 -5 15 -15v-160c0 -10 -5 -15 -15 -15s-15 5 -15 15v50
c0 10 -5 15 -15 15h-225c-10 0 -15 -5 -15 -15v-280c0 -10 5 -15 15 -15h325c10 0 15 5 15 15v90c0 10 5 15 15 15s15 -5 15 -15v-120c0 -10 -5 -15 -15 -15h-465c-101 0 -182 33 -243 100s-92 150 -92 250s31 183 92 250s142 100 243 100zM393 30h50c10 0 15 5 15 15v610
c0 10 -5 15 -15 15h-50c-91 0 -164 -30 -221 -91c-56 -61 -84 -137 -84 -229s28 -168 84 -229c57 -61 130 -91 221 -91z" />
    <glyph glyph-name="oe" unicode="&#x153;" horiz-adv-x="916" 
d="M447 270h379c10 0 15 5 15 15c0 53 -20 99 -59 137c-39 39 -87 58 -146 58c-61 0 -108 -19 -143 -58s-55 -84 -60 -137c-1 -10 4 -15 14 -15zM81 250c0 -70 19 -126 58 -168c39 -41 92 -62 157 -62s116 20 154 60c-33 45 -49 101 -49 170c0 68 16 124 49 169
c-39 41 -90 61 -154 61c-65 0 -117 -21 -156 -63s-59 -98 -59 -167zM636 20c104 0 154 45 183 72c9 8 16 3 22 -4s6 -15 -1 -21c-35 -32 -95 -77 -204 -77c-69 0 -125 23 -167 68c-44 -45 -102 -68 -173 -68c-73 0 -132 24 -177 72s-68 111 -68 188s23 140 68 188
s104 72 177 72c70 0 128 -23 173 -68c43 45 99 68 167 68s124 -22 168 -66c45 -44 67 -97 67 -159v-15c0 -20 -10 -30 -30 -30h-394c-10 0 -15 -5 -15 -15c4 -59 24 -108 59 -147c36 -39 84 -58 145 -58z" />
    <glyph glyph-name="Ydieresis" unicode="&#x178;" horiz-adv-x="627" 
d="M5 700h190c10 0 15 -5 15 -15s-5 -15 -15 -15h-60c-11 0 -15 -7 -10 -15l181 -316c5 -7 9 -7 14 0l182 316c5 8 1 15 -10 15h-60c-10 0 -15 5 -15 15s5 15 15 15h190c10 0 15 -5 15 -15s-5 -15 -15 -15h-60c-11 0 -19 -5 -25 -15l-208 -361v-249c0 -10 5 -15 15 -15h70
c10 0 15 -5 15 -15s-5 -15 -15 -15h-200c-10 0 -15 5 -15 15s5 15 15 15h70c10 0 15 5 15 15v247l-209 363c-6 10 -14 15 -25 15h-60c-10 0 -15 5 -15 15s5 15 15 15zM204 781c-15 16 -15 42 0 57c16 16 42 16 57 0c16 -15 16 -41 0 -57c-15 -15 -41 -15 -57 0zM364 781
c-15 16 -15 42 0 57c16 16 42 16 57 0c16 -15 16 -41 0 -57c-15 -15 -41 -15 -57 0z" />
    <glyph glyph-name="circumflex" unicode="&#x2c6;" horiz-adv-x="262" 
d="M6 577l107 109c6 6 12 9 17 9s11 -3 16 -8l110 -110c14 -14 -7 -35 -21 -21l-96 95c-6 6 -12 6 -18 0l-94 -95c-14 -14 -35 7 -21 21z" />
    <glyph glyph-name="tilde" unicode="&#x2dc;" horiz-adv-x="250" 
d="M0 575c0 57 29 90 70 90c65 0 64 -75 110 -75c27 0 40 20 40 60c0 10 5 15 15 15s15 -5 15 -15c0 -59 -29 -90 -70 -90c-65 0 -64 75 -110 75c-27 0 -40 -20 -40 -60c0 -10 -5 -15 -15 -15s-15 5 -15 15z" />
    <glyph glyph-name="endash" unicode="&#x2013;" horiz-adv-x="652" 
d="M91 335h470c10 0 15 -5 15 -15s-5 -15 -15 -15h-470c-10 0 -15 5 -15 15s5 15 15 15z" />
    <glyph glyph-name="emdash" unicode="&#x2014;" horiz-adv-x="832" 
d="M91 335h650c10 0 15 -5 15 -15s-5 -15 -15 -15h-650c-10 0 -15 5 -15 15s5 15 15 15z" />
    <glyph glyph-name="quoteleft" unicode="&#x2018;" horiz-adv-x="229" 
d="M64 551v15c0 69 28 120 75 140c4 2 7 3 10 3c5 0 9 -2 12 -7c5 -9 3 -15 -6 -19c-41 -18 -61 -49 -61 -92v-8c9 5 17 8 25 8c25 0 45 -19 45 -50s-19 -50 -50 -50c-33 0 -50 20 -50 60z" />
    <glyph glyph-name="quoteright" unicode="&#x2019;" horiz-adv-x="228" 
d="M121 710c33 0 50 -20 50 -60v-15c0 -69 -28 -120 -75 -140c-4 -2 -7 -3 -10 -3c-5 0 -9 2 -12 7c-5 9 -3 15 6 19c41 18 61 49 61 92v8c-9 -5 -17 -8 -25 -8c-25 0 -45 19 -45 50s19 50 50 50z" />
    <glyph glyph-name="quotesinglbase" unicode="&#x201a;" horiz-adv-x="242" 
d="M121 90c33 0 50 -20 50 -60v-15c0 -69 -28 -120 -75 -140c-4 -2 -7 -3 -10 -3c-5 0 -9 2 -12 7c-5 9 -3 15 6 19c41 18 61 49 61 92v8c-9 -5 -17 -8 -25 -8c-25 0 -45 19 -45 50s19 50 50 50z" />
    <glyph glyph-name="quotedblleft" unicode="&#x201c;" horiz-adv-x="369" 
d="M64 551v15c0 69 28 120 75 140c4 2 7 3 10 3c5 0 9 -2 12 -7c5 -9 3 -15 -6 -19c-41 -18 -61 -49 -61 -92v-8c9 5 17 8 25 8c25 0 45 -19 45 -50s-19 -50 -50 -50c-33 0 -50 20 -50 60zM204 551v15c0 69 28 120 75 140c4 2 7 3 10 3c5 0 9 -2 12 -7c5 -9 3 -15 -6 -19
c-41 -18 -61 -49 -61 -92v-8c9 5 17 8 25 8c25 0 45 -19 45 -50s-19 -50 -50 -50c-33 0 -50 20 -50 60z" />
    <glyph glyph-name="quotedblright" unicode="&#x201d;" horiz-adv-x="368" 
d="M121 710c33 0 50 -20 50 -60v-15c0 -69 -28 -120 -75 -140c-4 -2 -7 -3 -10 -3c-5 0 -9 2 -12 7c-5 9 -3 15 6 19c41 18 61 49 61 92v8c-9 -5 -17 -8 -25 -8c-25 0 -45 19 -45 50s19 50 50 50zM261 710c33 0 50 -20 50 -60v-15c0 -69 -28 -120 -75 -140
c-4 -2 -7 -3 -10 -3c-5 0 -9 2 -12 7c-5 9 -3 15 6 19c41 18 61 49 61 92v8c-9 -5 -17 -8 -25 -8c-25 0 -45 19 -45 50s19 50 50 50z" />
    <glyph glyph-name="quotedblbase" unicode="&#x201e;" horiz-adv-x="382" 
d="M121 90c33 0 50 -20 50 -60v-15c0 -69 -28 -120 -75 -140c-4 -2 -7 -3 -10 -3c-5 0 -9 2 -12 7c-5 9 -3 15 6 19c41 18 61 49 61 92v8c-9 -5 -17 -8 -25 -8c-25 0 -45 19 -45 50s19 50 50 50zM261 90c33 0 50 -20 50 -60v-15c0 -69 -28 -120 -75 -140c-4 -2 -7 -3 -10 -3
c-5 0 -9 2 -12 7c-5 9 -3 15 6 19c41 18 61 49 61 92v8c-9 -5 -17 -8 -25 -8c-25 0 -45 19 -45 50s19 50 50 50z" />
    <glyph glyph-name="bullet" unicode="&#x2022;" horiz-adv-x="344" 
d="M94 272c-21 21 -32 47 -32 78s11 57 32 78s47 32 78 32s57 -11 78 -32s32 -47 32 -78s-11 -57 -32 -78s-47 -32 -78 -32s-57 11 -78 32z" />
    <glyph glyph-name="ellipsis" unicode="&#x2026;" horiz-adv-x="662" 
d="M84 3c-17 19 -17 56 0 73c19 19 56 19 73 0c19 -17 19 -54 0 -73c-17 -17 -54 -17 -73 0zM294 3c-17 19 -17 56 0 73c19 19 56 19 73 0c19 -17 19 -54 0 -73c-17 -17 -54 -17 -73 0zM504 3c-17 19 -17 56 0 73c19 19 56 19 73 0c19 -17 19 -54 0 -73
c-17 -17 -54 -17 -73 0z" />
    <glyph glyph-name="guilsinglleft" unicode="&#x2039;" horiz-adv-x="356" 
d="M47 265l231 230c14 14 35 -7 21 -21l-216 -216c-6 -6 -6 -12 0 -18l214 -214c14 -14 -8 -34 -21 -21l-228 227c-6 6 -9 12 -9 17s3 11 8 16z" />
    <glyph glyph-name="guilsinglright" unicode="&#x203a;" horiz-adv-x="356" 
d="M273 258l-216 216c-17 14 8 34 21 21l231 -230c5 -5 8 -11 8 -16s-3 -11 -9 -17l-228 -227c-14 -14 -35 7 -21 21l214 214c6 6 6 12 0 18z" />
    <glyph glyph-name="Euro" unicode="&#x20ac;" horiz-adv-x="773" 
d="M471 20c92 0 172 31 229 91c7 7 14 7 21 0s7 -14 0 -21c-64 -63 -142 -100 -250 -100c-85 0 -156 25 -215 74c-58 49 -95 115 -111 196h-94c-10 0 -15 5 -15 15s5 15 15 15h89c-3 17 -4 37 -4 60c0 22 1 42 4 60h-69c-10 0 -15 5 -15 15s5 15 15 15h74
c16 80 52 145 107 195s122 75 199 75c80 0 153 -28 219 -85c11 -9 16 -6 16 10v50c0 10 5 15 15 15s15 -5 15 -15v-190c0 -10 -5 -15 -15 -15s-15 5 -15 15v70c-18 21 -39 40 -63 57c-55 39 -112 58 -172 58c-69 0 -128 -22 -178 -66c-49 -44 -82 -102 -98 -174h286
c10 0 15 -5 15 -15s-5 -15 -15 -15h-291c-3 -18 -4 -38 -4 -60c0 -23 1 -43 4 -60h271c10 0 15 -5 15 -15s-5 -15 -15 -15h-266c16 -73 50 -131 103 -175c53 -43 117 -65 193 -65z" />
    <glyph glyph-name="trademark" unicode="&#x2122;" horiz-adv-x="945" 
d="M78 620v65c0 10 5 15 15 15h260c10 0 15 -5 15 -15v-65c0 -10 -5 -15 -15 -15s-15 5 -15 15v35c0 10 -5 15 -15 15h-70c-10 0 -15 -5 -15 -15v-220c0 -10 5 -15 15 -15h40c10 0 15 -5 15 -15s-5 -15 -15 -15h-140c-10 0 -15 5 -15 15s5 15 15 15h40c10 0 15 5 15 15v220
c0 10 -5 15 -15 15h-70c-10 0 -15 -5 -15 -15v-35c0 -10 -5 -15 -15 -15s-15 5 -15 15zM413 420h40c10 0 15 5 15 15v220c0 10 -5 15 -15 15h-40c-10 0 -15 5 -15 15s5 15 15 15h77c12 0 20 -5 25 -15l108 -230c7 -13 13 -13 20 0l108 230c5 10 13 15 25 15h77
c10 0 15 -5 15 -15s-5 -15 -15 -15h-40c-10 0 -15 -5 -15 -15v-220c0 -10 5 -15 15 -15h40c10 0 15 -5 15 -15s-5 -15 -15 -15h-120c-10 0 -15 5 -15 15s5 15 15 15h20c10 0 15 5 15 15v195c0 10 -5 10 -8 5l-108 -230c-9 -20 -29 -20 -38 0l-108 230c-3 5 -8 5 -8 -5v-195
c0 -10 5 -15 15 -15h20c10 0 15 -5 15 -15s-5 -15 -15 -15h-120c-10 0 -15 5 -15 15s5 15 15 15z" />
    <glyph glyph-name="florin" unicode="&#x192;" horiz-adv-x="304" 
d="M148 455l1 -480c0 -120 -56 -185 -160 -185c-64 0 -110 36 -129 57c-7 7 -10 15 -2 23c7 7 14 7 21 0c23 -21 59 -50 110 -50c84 0 130 54 130 155l-1 480c0 10 -5 15 -15 15h-70c-10 0 -15 5 -15 15s5 15 15 15h70c10 0 15 5 15 15v10c0 120 56 185 160 185
c65 0 108 -36 129 -57c7 -7 10 -15 2 -23c-7 -7 -14 -7 -21 0c-23 21 -59 50 -110 50c-84 0 -130 -54 -130 -155v-10c0 -10 5 -15 15 -15h160c10 0 15 -5 15 -15s-5 -15 -15 -15h-160c-10 0 -15 -5 -15 -15z" />
    <glyph glyph-name="dagger" unicode="&#x2020;" horiz-adv-x="468" 
d="M419 450h-155c-10 0 -15 -5 -15 -15v-620c0 -10 -5 -15 -15 -15s-15 5 -15 15v620c0 10 -5 15 -15 15h-155c-10 0 -15 5 -15 15s5 15 15 15h155c10 0 15 5 15 15v190c0 10 5 15 15 15s15 -5 15 -15v-190c0 -10 5 -15 15 -15h155c10 0 15 -5 15 -15s-5 -15 -15 -15z" />
    <glyph glyph-name="daggerdbl" unicode="&#x2021;" horiz-adv-x="486" 
d="M273 50h155c10 0 15 -5 15 -15s-5 -15 -15 -15h-155c-9 0 -14 -4 -15 -12v-193c0 -10 -5 -15 -15 -15s-15 5 -15 15v193c-1 8 -6 12 -15 12h-155c-10 0 -15 5 -15 15s5 15 15 15h155c10 0 15 5 15 15v370c0 10 -5 15 -15 15h-155c-10 0 -15 5 -15 15s5 15 15 15h155
c10 0 15 5 15 15v190c0 10 5 15 15 15s15 -5 15 -15v-190c0 -10 5 -15 15 -15h155c10 0 15 -5 15 -15s-5 -15 -15 -15h-155c-10 0 -15 -5 -15 -15v-370c0 -10 5 -15 15 -15z" />
    <glyph glyph-name="perthousand" unicode="&#x2030;" horiz-adv-x="1144" 
d="M621 677l-432 -670c-5 -7 -12 -9 -20 -5c-9 5 -11 12 -5 21l433 669c7 9 12 9 20 5c9 -6 11 -13 4 -20zM719 160c0 80 -60 140 -135 140s-135 -60 -135 -140s60 -140 135 -140s135 60 135 140zM419 160c0 96 70 170 165 170s165 -74 165 -170s-70 -170 -165 -170
s-165 74 -165 170zM339 540c0 80 -60 140 -135 140s-135 -60 -135 -140s60 -140 135 -140s135 60 135 140zM39 540c0 96 70 170 165 170s165 -74 165 -170s-70 -170 -165 -170s-165 74 -165 170zM1079 160c0 80 -60 140 -135 140s-135 -60 -135 -140s60 -140 135 -140
s135 60 135 140zM779 160c0 96 70 170 165 170s165 -74 165 -170s-70 -170 -165 -170s-165 74 -165 170z" />
    <glyph glyph-name="Scaron" unicode="&#x160;" horiz-adv-x="665" 
d="M229 904l94 -95c6 -6 12 -6 18 0l96 95c7 7 14 7 21 0s7 -14 0 -21l-110 -110c-9 -9 -22 -10 -33 1l-107 109c-7 7 -7 14 0 21s14 7 21 0zM365 20c145 0 215 70 215 160c0 52 -36 91 -87 114c-88 40 -223 58 -313 103c-55 27 -90 69 -90 138c0 91 59 175 230 175
c105 0 184 -55 219 -85c13 -11 16 -1 16 10v50c0 10 5 15 15 15s15 -5 15 -15v-190c0 -10 -5 -15 -15 -15s-15 5 -15 15v70c-18 21 -39 40 -63 57c-41 29 -100 58 -172 58c-144 0 -200 -70 -200 -145c0 -52 36 -91 87 -114c88 -40 223 -58 313 -103c55 -27 90 -69 90 -138
c0 -110 -85 -190 -245 -190c-115 0 -195 56 -229 85c-13 11 -16 1 -16 -10v-50c0 -10 -5 -15 -15 -15s-15 5 -15 15v190c0 10 5 15 15 15s15 -5 15 -15v-75c18 -21 39 -39 64 -55c43 -28 102 -55 181 -55z" />
    <glyph glyph-name="Zcaron" unicode="&#x17d;" horiz-adv-x="615" 
d="M500 670h-400c-10 0 -15 -5 -15 -15v-110c0 -10 -5 -15 -15 -15s-15 5 -15 15v140c0 10 5 15 15 15h480c10 0 15 -6 15 -17c0 -8 -5 -12 -12 -23l-449 -614c-7 -8 -5 -16 11 -16h400c10 0 15 5 15 15v110c0 10 5 15 15 15s15 -5 15 -15v-140c0 -10 -5 -15 -15 -15h-480
c-10 0 -15 6 -15 17c0 8 5 12 12 23l449 614c7 8 5 16 -11 16zM211 914l94 -95c6 -6 12 -6 18 0l96 95c7 7 14 7 21 0s7 -14 0 -21l-110 -110c-9 -9 -22 -10 -33 1l-107 109c-7 7 -7 14 0 21s14 7 21 0z" />
    <glyph glyph-name="scaron" unicode="&#x161;" horiz-adv-x="554" 
d="M164 689l94 -95c6 -6 12 -6 18 0l96 95c7 7 14 7 21 0s7 -14 0 -21l-110 -110c-9 -9 -22 -10 -33 1l-107 109c-7 7 -7 14 0 21s14 7 21 0zM290 20c116 0 180 45 180 110c0 35 -16 54 -43 69c-58 32 -168 34 -251 55c-65 19 -116 49 -116 126c0 65 70 130 200 130
c85 0 149 -50 174 -75c12 -13 16 -1 16 10v40c0 10 5 15 15 15s15 -5 15 -15v-160c0 -10 -5 -15 -15 -15s-15 5 -15 15v50c-15 19 -31 37 -50 52c-33 27 -80 53 -140 53c-115 0 -170 -49 -170 -100c0 -36 15 -58 40 -74c59 -37 167 -40 252 -59c67 -16 118 -45 118 -117
c0 -80 -70 -140 -210 -140c-79 0 -149 40 -184 75c-13 13 -16 1 -16 -10v-40c0 -10 -5 -15 -15 -15s-15 5 -15 15v160c0 10 5 15 15 15s15 -5 15 -15v-50c14 -20 31 -38 50 -53c33 -27 82 -52 150 -52z" />
    <glyph glyph-name="zcaron" unicode="&#x17e;" horiz-adv-x="538" 
d="M418 470h-318c-10 0 -15 -5 -15 -15v-95c0 -10 -5 -15 -15 -15s-15 5 -15 15v125c0 10 5 15 15 15h403c10 0 15 -6 15 -17c0 -7 -4 -14 -12 -23l-368 -414c-7 -7 -5 -16 11 -16h319c10 0 15 5 15 15v95c0 10 5 15 15 15s15 -5 15 -15v-125c0 -10 -5 -15 -15 -15h-404
c-10 0 -15 6 -15 17c0 8 4 14 12 23l368 414c7 7 5 16 -11 16zM164 689l94 -95c6 -6 12 -6 18 0l96 95c7 7 14 7 21 0s7 -14 0 -21l-110 -110c-9 -9 -22 -10 -33 1l-107 109c-7 7 -7 14 0 21s14 7 21 0z" />
    </font>
</defs>
</svg>
